bt.etree.org
etree.org Community Bittorrent Tracker
ArtistLittle Feat
ShowLittle Feat 2012-12-29 Collingswood, NJ *Cafiero/Ford - Schoeps/Sennheiser matrix*
Report this as
non-Trade-Friendly
Email us
Torrentlf2012-12-29.mtx.cafiero.ford.123353.sbeok.flac16.torrent (click to download)
Downloads aslf2012-12-29.mtx.cafiero.ford.123353.sbeok.flac16
Info hash0feacf54263f52c2b538a4385d30fb3094728d14
db linkhttp://db.etree.org/shn/123353 | Show | Source
DescriptionLittle Feat
12/29/2012 - Saturday
Scottish Rite Auditorium
Collingswood, NJ


Source: Audience Matrix; Schoeps cmc6/mk4v + Sennheiser ME 64 > Tascam DR-680 (@24/44.1)

Lineage: Tascam DR-680 (SD)> WaveLab 7.2.1 (editing/mixing/mastering with UAD-2 in 24/44.1)>
.wav @ 24/44.1> Steinberg UV22HR> .wav @16/.44.1> xAct 2.20> flac16

Taped and transferred by Chris Cafiero.
Edited, mixed and mastered by Alex Ford.


CD 1: [76:52]

01. Introduction by Michael Tearson
02. Rocket In My Pocket
03. Just A Fever
04. Salome
05. Fat Man In The Bathtub >
06. Abba Zaba >
07. Fat Man In The Bathtub
08. Spanish Moon
09. One Breath At A Time
10. Intro
11. Willin' >
12. Don't Bogart That Joint >
13. Willin'
14. Church Falling Down
15. Rooster Rag

CD 2: [38:05]

01. Mellow Down Easy
02. Dixie Chicken >
03. Bass jam >
04. Key/Drum jam >
05. Drum solo >
06. Gringo >
07. The Last Adios* >
08. Dixie Chicken
Encore:
09. Oh Atlanta


Comments:

- *Bill Payne song. First time played at a Little Feat show
- Show dedicated in memory of Marc Joseph

Notes:

- All editing, mixing and mastering with UAD-2 in 24 bit/44.1 kHz
- Tracked in Wave Lab, meta tagging with xAct 2.20, SBE Free



length expanded size cdr WAVE problems fmt ratio filename
1:32.49 16344092 B --- -- ----- wav 1.0000 lf2012-12-29-mtx.cafiero.ford-d1t01.wav
7:05.42 75068828 B --- -- ----- wav 1.0000 lf2012-12-29-mtx.cafiero.ford-d1t02.wav
4:59.18 52785980 B --- -- ----- wav 1.0000 lf2012-12-29-mtx.cafiero.ford-d1t03.wav
7:04.53 74918300 B --- -- ----- wav 1.0000 lf2012-12-29-mtx.cafiero.ford-d1t04.wav
8:15.00 87318044 B --- -- ----- wav 1.0000 lf2012-12-29-mtx.cafiero.ford-d1t05.wav
3:14.07 34238108 B --- -- ----- wav 1.0000 lf2012-12-29-mtx.cafiero.ford-d1t06.wav
3:47.11 40068716 B --- -- ----- wav 1.0000 lf2012-12-29-mtx.cafiero.ford-d1t07.wav
9:38.28 102025100 B --- -- ----- wav 1.0000 lf2012-12-29-mtx.cafiero.ford-d1t08.wav
6:08.60 65056364 B --- -- ----- wav 1.0000 lf2012-12-29-mtx.cafiero.ford-d1t09.wav
0:21.65 3857324 B --- -- ----- wav 1.0000 lf2012-12-29-mtx.cafiero.ford-d1t10.wav
9:11.30 97267004 B --- -- ----- wav 1.0000 lf2012-12-29-mtx.cafiero.ford-d1t11.wav
1:54.39 20201372 B --- -- ----- wav 1.0000 lf2012-12-29-mtx.cafiero.ford-d1t12.wav
0:43.67 7742828 B --- -- ----- wav 1.0000 lf2012-12-29-mtx.cafiero.ford-d1t13.wav
6:10.27 65331548 B --- -- ----- wav 1.0000 lf2012-12-29-mtx.cafiero.ford-d1t14.wav
6:44.64 71416172 B --- -- ----- wav 1.0000 lf2012-12-29-mtx.cafiero.ford-d1t15.wav
5:34.05 58929404 B --- -- ----- wav 1.0000 lf2012-12-29-mtx.cafiero.ford-d2t01.wav
6:00.31 63576956 B --- -- ----- wav 1.0000 lf2012-12-29-mtx.cafiero.ford-d2t02.wav
1:53.45 20039084 B --- -- ----- wav 1.0000 lf2012-12-29-mtx.cafiero.ford-d2t03.wav
1:54.62 20255468 B --- -- ----- wav 1.0000 lf2012-12-29-mtx.cafiero.ford-d2t04.wav
0:55.24 9758492 B --- -- ----- wav 1.0000 lf2012-12-29-mtx.cafiero.ford-d2t05.wav
2:18.09 24364412 B --- -- ----- wav 1.0000 lf2012-12-29-mtx.cafiero.ford-d2t06.wav
2:53.36 30601916 B --- -- ----- wav 1.0000 lf2012-12-29-mtx.cafiero.ford-d2t07.wav
11:42.53 123957500 B --- -- ----- wav 1.0000 lf2012-12-29-mtx.cafiero.ford-d2t08.wav
4:53.10 51708764 B --- -- ----- wav 1.0000 lf2012-12-29-mtx.cafiero.ford-d2t09.wav
114:58.10 1216831776 B 1.0000 (24 files)
ChecksumsFFP:

lf2012-12-29-mtx.cafiero.ford-d1t01.flac:d5048435e4b89eb6e330a817a02a3d75
lf2012-12-29-mtx.cafiero.ford-d1t02.flac:b9d5459bc946bbd4cc3dd58ddecc59f4
lf2012-12-29-mtx.cafiero.ford-d1t03.flac:7309a3b081ac019e2425ed202571f7bb
lf2012-12-29-mtx.cafiero.ford-d1t04.flac:d4a1a0070e0c41b747d482cea7251f63
lf2012-12-29-mtx.cafiero.ford-d1t05.flac:d8adb99003a647c92f0110194d9b4ced
lf2012-12-29-mtx.cafiero.ford-d1t06.flac:861d1915172862e79e9b5979fbdfac2f
lf2012-12-29-mtx.cafiero.ford-d1t07.flac:bdc22defa224a3a2895a5d1a9d85d119
lf2012-12-29-mtx.cafiero.ford-d1t08.flac:588ce0b31769762c80463dd01c73417c
lf2012-12-29-mtx.cafiero.ford-d1t09.flac:712c7f77dc946841bc9182c7f3462ba0
lf2012-12-29-mtx.cafiero.ford-d1t10.flac:e7e9fd94242fc3a87db819a6feaae94e
lf2012-12-29-mtx.cafiero.ford-d1t11.flac:a79d4cc827d0268919acc800bbb2f167
lf2012-12-29-mtx.cafiero.ford-d1t12.flac:bd397a44a9e5d39318daa3219737fd31
lf2012-12-29-mtx.cafiero.ford-d1t13.flac:fe43b28b83c1e6e82589cd0944176eb6
lf2012-12-29-mtx.cafiero.ford-d1t14.flac:48f3484cda941e449daa3a2e532b0a94
lf2012-12-29-mtx.cafiero.ford-d1t15.flac:782c4b7d2fcd0e60583ded3a3e310af7
lf2012-12-29-mtx.cafiero.ford-d2t01.flac:799e702c3bfd176a25885fb14645d364
lf2012-12-29-mtx.cafiero.ford-d2t02.flac:b255a56333e49424c7c9df813c558c38
lf2012-12-29-mtx.cafiero.ford-d2t03.flac:6beac03db27adbdf7bf44f451a65fb9a
lf2012-12-29-mtx.cafiero.ford-d2t04.flac:3fa97786285cf268f3767ca6930db108
lf2012-12-29-mtx.cafiero.ford-d2t05.flac:4c3c8bf47ecda4a99214af730d89570b
lf2012-12-29-mtx.cafiero.ford-d2t06.flac:a9a755de11259e62089dc65326d41d1d
lf2012-12-29-mtx.cafiero.ford-d2t07.flac:6fa3b653961ee411fbd83be2c8441ba0
lf2012-12-29-mtx.cafiero.ford-d2t08.flac:5d4db34a7c2c4d8e3a0c1c786116c062
lf2012-12-29-mtx.cafiero.ford-d2t09.flac:0a867b7056a39d576b08cc75990a78d1
TypeLittle Feat
Last seederLast activity 31:30 ago
Size643.36 MB (674612549 Bytes)
Added2013-01-04 14:05:58
Views1
Hits224
Snatched102 times
Upped byAlbix
Num files28 files
File List
[Hide list]
filenamesizemd5
lf2012-12-29.123353.ffp1.7 kBN/A
lf2012-12-29.123353.md51.8 kBN/A
lf2012-12-29.123353.st52.0 kBN/A
lf2012-12-29.123353.txt3.8 kBN/A
lf2012-12-29-mtx.cafiero.ford-d1t01.flac7.11 MBN/A
lf2012-12-29-mtx.cafiero.ford-d1t02.flac42.50 MBN/A
lf2012-12-29-mtx.cafiero.ford-d1t03.flac28.75 MBN/A
lf2012-12-29-mtx.cafiero.ford-d1t04.flac41.57 MBN/A
lf2012-12-29-mtx.cafiero.ford-d1t05.flac49.75 MBN/A
lf2012-12-29-mtx.cafiero.ford-d1t06.flac19.60 MBN/A
lf2012-12-29-mtx.cafiero.ford-d1t07.flac22.46 MBN/A
lf2012-12-29-mtx.cafiero.ford-d1t08.flac57.20 MBN/A
lf2012-12-29-mtx.cafiero.ford-d1t09.flac35.78 MBN/A
lf2012-12-29-mtx.cafiero.ford-d1t10.flac1.59 MBN/A
lf2012-12-29-mtx.cafiero.ford-d1t11.flac43.05 MBN/A
lf2012-12-29-mtx.cafiero.ford-d1t12.flac9.40 MBN/A
lf2012-12-29-mtx.cafiero.ford-d1t13.flac3.93 MBN/A
lf2012-12-29-mtx.cafiero.ford-d1t14.flac30.63 MBN/A
lf2012-12-29-mtx.cafiero.ford-d1t15.flac40.00 MBN/A
lf2012-12-29-mtx.cafiero.ford-d2t01.flac34.31 MBN/A
lf2012-12-29-mtx.cafiero.ford-d2t02.flac27.91 MBN/A
lf2012-12-29-mtx.cafiero.ford-d2t03.flac10.30 MBN/A
lf2012-12-29-mtx.cafiero.ford-d2t04.flac9.34 MBN/A
lf2012-12-29-mtx.cafiero.ford-d2t05.flac4.92 MBN/A
lf2012-12-29-mtx.cafiero.ford-d2t06.flac12.45 MBN/A
lf2012-12-29-mtx.cafiero.ford-d2t07.flac11.08 MBN/A
lf2012-12-29-mtx.cafiero.ford-d2t08.flac69.50 MBN/A
lf2012-12-29-mtx.cafiero.ford-d2t09.flac30.23 MBN/A
Peers
[See full list]
0 seeders, 1 leecher = 1 peer total

Add a comment

Albix 2013-01-04 14:13:15
Great job by Chris, you can turn this one up to eleven! A well rested band = a great night. 12/30 and NYE show from DC will be up next. Enjoy!
bigdaddybflo 2013-01-04 14:21:39
Marc Joseph= BEST FEAT FAN FOREVER !!
R.I.P. Marc. dont worry ,i'll be boogiein for you tommorow nite in the falls. Thanks Chris an Alex for the love.
dogstar51 2013-01-04 15:36:17
I'll step up to say, To this very day, FEATS JUST CANT'S BE BEATS! Thanks Muchly!
Albix 2013-01-04 22:50:46
Now on the LMA ~> http://archive.org/details/lf2012-12-29.mtx.cafiero.ford.123353.sbeok.flac16
_MULETAPER 2013-01-05 08:50:20
this is a kick ASS version of a killer audience recording!!!

NICE Job!
Albix 2013-01-05 17:40:05
Some video via Chris from the show...

Spanish Moon - http://youtu.be/46h29X0HdW0
alexang5 2013-01-07 14:05:54
Thanks for sharing

Add a comment


http://etree.org : http://db.etree.org : http://forums.etree.org : http://wiki.etree.org : Legal : RSS Feed

Contents designed & maintained by the etree.org volunteers
1998-2014, etree.org, except where noted. All Rights Reserved.
Read our terms of service and privacy guidelines