Community Bittorrent Tracker
ArtistGrateful Dead
Report this as
Email us
Torrentgd78-02-05.123360.mtx.set2.dusborne.flac16.torrent (click to download)
Downloads asgd78-02-05.123360.mtx.set2.dusborne.flac16
Info hash33856500efeef28382e93d808f9db3f73b7bf474
db link | Show | Source
DescriptionGrateful Dead

February 5, 1978
UniDome, University of Northern Iowa

Cedar Falls, IA

2 source matrix

Soundboard (shnid:19471)

Soundboard->Master Reel->DAT->DAT


Dat seed provided by Michael P. Weitzman
Transfer and SHN by Joe Samaritano

Most of this appears on Dick's Pick #18.
Please go buy it as it contains most of
2/3/78 as well!

Audience (shnid:19466)

Set Two only

Master audience cassette (unknown equipment) > DAT > CD > Samsung SW-232B extraction
(EAC v0.9 beta 4) > tracking (CD Wave) > sector boundary verification (shntool v1.01) >
.shn encoding (mkwACT v0.97 beta 1)

DAT > CD by Jeff Fishman

EAC > SHN by Jack Warner

---Thank you Michael P. Weitzman for providing the SBD DAT.
---Thank you Joe Samaritano for transfer and SHN encoding of the SBD.
---Thank You Jeff Fishman for transfering your Dat to CD.
---Thank you Jack Warner for encoding the CD files to SHN
---Thanks to germain for everything;seeding,encouragement,advice and tutelage.

Mix Ratio:
SBD -1 db
Aud -8 db
** some minor mix adjustments here and there when needed **

Matrix by dusborne using Adobe Audition CS6 and Audacity 2.0


Set 2
s2t01 - Tuning
s2t02 - Samson & Delilah
s2t03 - Bob's Lumberjack Story
s2t04 - Scarlet Begonias ->
s2t05 - Fire On The Mountain ->
s2t06 - Truckin'->
s2t07 - Drums ->
s2t08 - Other One ->
s2t09 - Wharf Rat ->
s2t10 - Around & Around

s2t11 - U.S. Blues
Tagging notes:
Show information is embedded within the header of each flac file.
It will display on any player capable of directly playing flac
files. If converted to wav during processing, all tags will be
stripped, however audio data will remain unaffected. If you must
transcode to a lossy format, do so directly Flac > Lossy.
Use ffp to validate audio integrity.
Md5 values will change if tagging is altered.

dusborne 12-21-2012
length expanded size cdr WAVE problems fmt ratio filename
0:23.31 4130156 B --- -- ---xx flac 0.5306 s2t01.flac
11:34.42 122520428 B --- -- ---xx flac 0.6829 s2t02.flac
2:12.48 23397740 B --- -- ---xx flac 0.5073 s2t03.flac
12:46.54 135249452 B --- -- ---xx flac 0.6696 s2t04.flac
16:58.21 179624636 B --- -- ---xx flac 0.6682 s2t05.flac
9:16.38 98167820 B --- -- ---xx flac 0.6370 s2t06.flac
1:57.32 20714108 B --- -- ---xx flac 0.5697 s2t07.flac
9:03.27 95848748 B --- -- ---xx flac 0.6578 s2t08.flac
9:02.52 95731148 B --- -- ---xx flac 0.6016 s2t09.flac
8:57.12 94755068 B --- -- ---xx flac 0.6563 s2t10.flac
6:21.08 67227260 B --- -- ---xx flac 0.6583 s2t11.flac
88:33.65 937366564 B 0.6505 (11 files)
TypeGrateful Dead
Last seederLast activity 26:01 ago
Size581.71 MB (609968302 Bytes)
Added2013-01-04 16:30:53
Snatched453 times
Upped bygermain
Num files
[See full list]
17 files
[See full list]
1 seeder, 0 leechers = 1 peer total

Add a comment

cryptical17 2013-01-04 16:36:21
Thanks Germain
dewey72 2013-01-04 19:29:08
One of my favorite sets of GD music. Thank you!
germain 2013-01-04 20:07:02
The Scarlet-Fire is one for the ages. If this doesn't send you into the deepest regions of Never Ever Land, best to just hand in your Stealies.
serodavid 2013-01-05 05:05:09
nuchdig 2013-01-05 05:36:34
deadatty 2013-01-05 13:12:09
Damn this sounds good. Thanks for the album art too.
dennisthorough 2013-01-05 22:02:23
this whole jan-feb tour is fantastic and its still in the tank for the last night.
thewaymouth 2013-01-06 03:43:45
Thanks for more Donna shows. You could say it even glows. On Donna!

She sings beautiful as usual on the Scarlet>Fire bridge and Rat. And her joy sounds so sweet now on Around & Around. Donna never stops rockin on my speak_hers.
bigmoe53221 2013-01-06 17:57:26
My 25th birthday. It was bitterly cold in Cedar Falls that night. People were huddled together outside the dome waiting for the doors to open. The heater in the VW went out on the way back to Des Moines making it an interesting time driving with no heat or defrost. One for the ages though.
130269 2013-01-29 00:57:53

Add a comment : : : : Legal : RSS Feed

Contents designed & maintained by the volunteers
1998-2014,, except where noted. All Rights Reserved.
Read our terms of service and privacy guidelines