bt.etree.org
etree.org Community Bittorrent Tracker
ArtistJimmy Herring Band
ShowJimmy Herring Band 2012-11-14 Wilbur Theatre Boston, MA DPA 4023>V3>AD2K**16bit**
Report this as
non-Trade-Friendly
Email us
Torrentjhb2012-11-14_dpa4023_1644_FLAC.torrent (click to download)
Downloads asjhb2012-11-14_dpa4023_1644_FLAC
Info hash180c5cc3a85a9f69469cdc79672934dfa86750d6
DescriptionJimmy Herring Band
2012-11-14
Wilbur Theatre
Boston, Massachusetts

Recorded by John Lynch

Transferred by Andy Murray

DPA 4023>Lunatec V3>AD2K>Tascam HD-P2(24bit/48khz)

WAV>USB>Macbook Pro>Wave Editor(tracking,fades,resample(izotope)/dither(mbit+)to 16 bit/44.1k)>XAct(FLAC 8,ffp,fix sbe)

Victor Wooten Band was the headliner

1 Set

01 crowd
02 Since I've Been Loving You
03 Matt's Funk
04 Aberdeen
05 Duke and Cookie
06 Miss Poopie
07 Emerald Garden
08 Rainbow
09 Band Introductions
10 Heads Up
11 A Day In The Life >
12 Bilgewater Blues
13 Band Introductions
14 Within You Without You

Jimmy Herring - Guitar
Matt Slocum - Keyboards
Neal Fountain - Bass
Jeff Sipe - Drums

length expanded size cdr WAVE problems fmt ratio filename
0:56.39 9970172 B --- -- ----- wav 1.0000 jhb2012-11-14_dpa4023_1644_d1t01.wav
11:26.56 121142156 B --- -- ----- wav 1.0000 jhb2012-11-14_dpa4023_1644_d1t02.wav
6:06.20 64609484 B --- -- ----- wav 1.0000 jhb2012-11-14_dpa4023_1644_d1t03.wav
6:40.28 70625900 B --- -- ----- wav 1.0000 jhb2012-11-14_dpa4023_1644_d1t04.wav
6:45.19 71486732 B --- -- ----- wav 1.0000 jhb2012-11-14_dpa4023_1644_d1t05.wav
8:08.23 86137340 B --- -- ----- wav 1.0000 jhb2012-11-14_dpa4023_1644_d1t06.wav
6:42.59 71051612 B --- -- ----- wav 1.0000 jhb2012-11-14_dpa4023_1644_d1t07.wav
11:35.53 122722700 B --- -- ----- wav 1.0000 jhb2012-11-14_dpa4023_1644_d1t08.wav
0:34.06 6011756 B --- -- ----- wav 1.0000 jhb2012-11-14_dpa4023_1644_d1t09.wav
5:49.06 61577756 B --- -- ----- wav 1.0000 jhb2012-11-14_dpa4023_1644_d1t10.wav
8:01.56 84980156 B --- -- ----- wav 1.0000 jhb2012-11-14_dpa4023_1644_d1t11.wav
4:38.68 49199180 B --- -- ----- wav 1.0000 jhb2012-11-14_dpa4023_1644_d1t12.wav
0:35.04 6183452 B --- -- ----- wav 1.0000 jhb2012-11-14_dpa4023_1644_d1t13.wav
12:19.31 130432556 B --- -- ----- wav 1.0000 jhb2012-11-14_dpa4023_1644_d1t14.wav
90:20.18 956130952 B 1.0000 (14 files)
Checksums;flac fingerprints generated by xACT 2.21 on 2013-01-04 22:54:46 -0500

jhb2012-11-14_dpa4023_1644_d1t01.flac:ef883f30460445c85f482659db38dff5
jhb2012-11-14_dpa4023_1644_d1t02.flac:a05031df8dda1875c60cf5aeb387173b
jhb2012-11-14_dpa4023_1644_d1t03.flac:06eec4a987aca947d3fd4a7fe3cbe1b6
jhb2012-11-14_dpa4023_1644_d1t04.flac:7c6c205d73fa642ae8ffe4208b798483
jhb2012-11-14_dpa4023_1644_d1t05.flac:8d42aac4ddd30b6d67273116a4d7470e
jhb2012-11-14_dpa4023_1644_d1t06.flac:ccb52aca28fed8765ead347fe42366b2
jhb2012-11-14_dpa4023_1644_d1t07.flac:8707f33ba183aeac2bd13cbecf5a3c83
jhb2012-11-14_dpa4023_1644_d1t08.flac:eb2f5a3bd40aa090dab9c664ccbe6f53
jhb2012-11-14_dpa4023_1644_d1t09.flac:b93af02929807f649469a39492ffcac5
jhb2012-11-14_dpa4023_1644_d1t10.flac:a2b7244056981fb58ac56825c908f7ee
jhb2012-11-14_dpa4023_1644_d1t11.flac:63eacec788f72d993babba74cade5c35
jhb2012-11-14_dpa4023_1644_d1t12.flac:f69990b834abdfdfc992906579f46475
jhb2012-11-14_dpa4023_1644_d1t13.flac:c67d8c5950e7bd9dfcc6d41161297ca0
jhb2012-11-14_dpa4023_1644_d1t14.flac:5f3f3bfc5857f444b8b2e8d5dfdc30d8
TypeJimmy Herring Band
Last seederLast activity 6:20 ago
Size502.44 MB (526848162 Bytes)
Added2013-01-04 23:16:14
Views0
Hits297
Snatched133 times
Upped byandyjah
Num files16 files
File List
[Hide list]
filenamesizemd5
jhb2012-11-14_dpa4023_1644_d1t01.flac2.81 MBN/A
jhb2012-11-14_dpa4023_1644_d1t02.flac62.45 MBN/A
jhb2012-11-14_dpa4023_1644_d1t03.flac35.78 MBN/A
jhb2012-11-14_dpa4023_1644_d1t04.flac36.20 MBN/A
jhb2012-11-14_dpa4023_1644_d1t05.flac40.22 MBN/A
jhb2012-11-14_dpa4023_1644_d1t06.flac48.81 MBN/A
jhb2012-11-14_dpa4023_1644_d1t07.flac36.79 MBN/A
jhb2012-11-14_dpa4023_1644_d1t08.flac58.77 MBN/A
jhb2012-11-14_dpa4023_1644_d1t09.flac2.88 MBN/A
jhb2012-11-14_dpa4023_1644_d1t10.flac33.36 MBN/A
jhb2012-11-14_dpa4023_1644_d1t11.flac48.08 MBN/A
jhb2012-11-14_dpa4023_1644_d1t12.flac28.03 MBN/A
jhb2012-11-14_dpa4023_1644_d1t13.flac2.85 MBN/A
jhb2012-11-14_dpa4023_1644_d1t14.flac65.43 MBN/A
jhb2012-11-14_dpa4023_1644_ffp.txt1.0 kBN/A
jhb2012-11-14_dpa4023_1644_info.txt3.2 kBN/A
Peers
[See full list]
0 seeders, 1 leecher = 1 peer total

Add a comment

zmanatl 2013-01-04 23:42:42
Andy, I was surprised you were not at this show with us. Glad your ears were ok so you could track this out!
Tomahawk Kid 2013-01-05 05:27:03
Thank you very much!
BostonDPA4023 2013-01-05 12:53:51
Thanks Andy.

Add a comment


http://etree.org : http://db.etree.org : http://forums.etree.org : http://wiki.etree.org : Legal : RSS Feed

Contents designed & maintained by the etree.org volunteers
1998-2014, etree.org, except where noted. All Rights Reserved.
Read our terms of service and privacy guidelines