bt.etree.org
etree.org Community Bittorrent Tracker
ArtistLittle Feat
ShowLittle Feat 2012-12-30 The Hamilton, Washington D.C. *Cafiero/Ford Schoeps/Sennheiser matrix*
Report this as
non-Trade-Friendly
Email us
Torrentlf2012-12-30.mtx.cafiero.ford.123377.sbeok.flac16.torrent (click to download)
Downloads aslf2012-12-30.mtx.cafiero.ford.123377.sbeok.flac16
Info hash910960ca60404a2a8fada2e9abb0b3510dc086e0
db link http://db.etree.org/shn/123377 | Show | Source
DescriptionLittle Feat
12/30/2012 - Sunday
The Hamilton
Washington, DC

Source: Audience Matrix; Schoeps cmc6/mk4v + Sennheiser ME 64 > Tascam DR-680 (@24/44.1)

Lineage: Tascam DR-680 (SD)> WaveLab 7.2.1 (editing/mixing/mastering with UAD-2 in 24/44.1)>
.wav @ 24/44.1> Steinberg UV22HR> .wav @16/.44.1> xAct 2.20> flac16

Taped and transferred by Chris Cafiero.
Edited, mixed and mastered by Alex Ford.


CD 1: [67:53]

01. Intro
02. All That You Dream
03. Representing The Mambo >
04. Just Another Sunday jam
05. Spanish Moon >
06. Skin It Back
07. One Breath At A Time
08. Rooster Rag
09. Willin' >
10. Don't Bogart That Joint >
11. Long Black Veil >
12. The Weight >
13. Willin'

CD 2: [46:50]

01. Feel The Groove
02. Dixie Chicken >
03. Bass jam >
04. Key/Drum jam >
05. Dixie Chicken
Encore:
06. Fat Man In The Bathtub >
07. Abba Zaba >
08. Fat Man In The Bathtub


Comments:

- Show dedicated in memory of Marc Joseph.

Notes:

- All editing, mixing and mastering with UAD-2 in 24 bit/44.1 kHz
- Tracked in WaveLab, meta tagging with xAct 2.20, SBE Free


length expanded size cdr WAVE problems fmt ratio filename
0:32.11 5670716 B --- -- ----- wav 1.0000 lf2012-12-30-mtx.cafiero.ford-d1t01.wav
7:08.27 75562748 B --- -- ----- wav 1.0000 lf2012-12-30-mtx.cafiero.ford-d1t02.wav
6:14.08 65992460 B --- -- ----- wav 1.0000 lf2012-12-30-mtx.cafiero.ford-d1t03.wav
5:05.17 53842028 B --- -- ----- wav 1.0000 lf2012-12-30-mtx.cafiero.ford-d1t04.wav
13:51.58 146724860 B --- -- ----- wav 1.0000 lf2012-12-30-mtx.cafiero.ford-d1t05.wav
2:34.53 27290300 B --- -- ----- wav 1.0000 lf2012-12-30-mtx.cafiero.ford-d1t06.wav
6:35.74 69852092 B --- -- ----- wav 1.0000 lf2012-12-30-mtx.cafiero.ford-d1t07.wav
6:42.24 70969292 B --- -- ----- wav 1.0000 lf2012-12-30-mtx.cafiero.ford-d1t08.wav
9:00.64 95406572 B --- -- ----- wav 1.0000 lf2012-12-30-mtx.cafiero.ford-d1t09.wav
1:30.68 16035980 B --- -- ----- wav 1.0000 lf2012-12-30-mtx.cafiero.ford-d1t10.wav
2:49.74 29985692 B --- -- ----- wav 1.0000 lf2012-12-30-mtx.cafiero.ford-d1t11.wav
4:42.10 49768364 B --- -- ----- wav 1.0000 lf2012-12-30-mtx.cafiero.ford-d1t12.wav
1:05.03 11473100 B --- -- ----- wav 1.0000 lf2012-12-30-mtx.cafiero.ford-d1t13.wav
6:43.63 71237420 B --- -- ----- wav 1.0000 lf2012-12-30-mtx.cafiero.ford-d2t01.wav
5:44.11 60707516 B --- -- ----- wav 1.0000 lf2012-12-30-mtx.cafiero.ford-d2t02.wav
1:46.65 18851324 B --- -- ----- wav 1.0000 lf2012-12-30-mtx.cafiero.ford-d2t03.wav
5:34.70 59082284 B --- -- ----- wav 1.0000 lf2012-12-30-mtx.cafiero.ford-d2t04.wav
11:24.08 120676460 B --- -- ----- wav 1.0000 lf2012-12-30-mtx.cafiero.ford-d2t05.wav
8:29.22 89839388 B --- -- ----- wav 1.0000 lf2012-12-30-mtx.cafiero.ford-d2t06.wav
3:51.03 40755500 B --- -- ----- wav 1.0000 lf2012-12-30-mtx.cafiero.ford-d2t07.wav
3:15.60 34539164 B --- -- ----- wav 1.0000 lf2012-12-30-mtx.cafiero.ford-d2t08.wav
114:43.43 1214263260 B 1.0000 (21 files)
ChecksumsFFP:

lf2012-12-30-mtx.cafiero.ford-d1t01.flac:c59307ef32b7085258343b60bcec8bdb
lf2012-12-30-mtx.cafiero.ford-d1t02.flac:f6d37d4e1c20c9b259c08e578a9a0547
lf2012-12-30-mtx.cafiero.ford-d1t03.flac:79944a936cc33a141dad772e42f8133e
lf2012-12-30-mtx.cafiero.ford-d1t04.flac:33c0f9ba266845008f5a43dd58dea242
lf2012-12-30-mtx.cafiero.ford-d1t05.flac:4716f9817f4cbca6974f422f94cdeee0
lf2012-12-30-mtx.cafiero.ford-d1t06.flac:cf92c4d4f090921782497bc1c55639db
lf2012-12-30-mtx.cafiero.ford-d1t07.flac:14e763cb91eacdbd2a086958b11b84dc
lf2012-12-30-mtx.cafiero.ford-d1t08.flac:e27739071ae488ae359256c6129fc300
lf2012-12-30-mtx.cafiero.ford-d1t09.flac:c8304b60ccad4fd90d0b179c49ef2a86
lf2012-12-30-mtx.cafiero.ford-d1t10.flac:97b54c595d4ff91adb9a8f2dba8679b5
lf2012-12-30-mtx.cafiero.ford-d1t11.flac:0ed3e76e51e3eec29d5ea23237bbf05e
lf2012-12-30-mtx.cafiero.ford-d1t12.flac:78e69cbf58b49f81d408f9715aa85d47
lf2012-12-30-mtx.cafiero.ford-d1t13.flac:affaa6f891f83e492ebc3337ee5ae0f9
lf2012-12-30-mtx.cafiero.ford-d2t01.flac:4dcac5bcc7b1b718542fe21b2516453f
lf2012-12-30-mtx.cafiero.ford-d2t02.flac:d033772513e2dce7138b47625dd807dc
lf2012-12-30-mtx.cafiero.ford-d2t03.flac:f10d4296f773b8d6683bddaaf8e272c9
lf2012-12-30-mtx.cafiero.ford-d2t04.flac:992e4ecf73aa16f0c7c8ffc30b285192
lf2012-12-30-mtx.cafiero.ford-d2t05.flac:99d744198090a0c735448dda73f7a1d4
lf2012-12-30-mtx.cafiero.ford-d2t06.flac:7898d1d1619cf991e02052afd1af8a02
lf2012-12-30-mtx.cafiero.ford-d2t07.flac:0241e47a923d7b1b820d4906ca7142ad
lf2012-12-30-mtx.cafiero.ford-d2t08.flac:6929c8d981f3075fd9b710bed704fa41
TypeLittle Feat
Last seederLast activity 8:59:27 ago
Size651.49 MB (683134601 Bytes)
Added2013-01-05 16:15:04
Views4
Hits304
Snatched136 times
Upped byAlbix
Num files25 files
File List
[Hide list]
filenamesizemd5
lf2012-12-30.123377.ffp1.5 kBN/A
lf2012-12-30.123377.md51.5 kBN/A
lf2012-12-30.123377.st51.8 kBN/A
lf2012-12-30.123377.txt3.4 kBN/A
lf2012-12-30-mtx.cafiero.ford-d1t01.flac2.64 MBN/A
lf2012-12-30-mtx.cafiero.ford-d1t02.flac43.74 MBN/A
lf2012-12-30-mtx.cafiero.ford-d1t03.flac36.20 MBN/A
lf2012-12-30-mtx.cafiero.ford-d1t04.flac30.06 MBN/A
lf2012-12-30-mtx.cafiero.ford-d1t05.flac85.27 MBN/A
lf2012-12-30-mtx.cafiero.ford-d1t06.flac14.72 MBN/A
lf2012-12-30-mtx.cafiero.ford-d1t07.flac37.23 MBN/A
lf2012-12-30-mtx.cafiero.ford-d1t08.flac40.66 MBN/A
lf2012-12-30-mtx.cafiero.ford-d1t09.flac42.61 MBN/A
lf2012-12-30-mtx.cafiero.ford-d1t10.flac7.61 MBN/A
lf2012-12-30-mtx.cafiero.ford-d1t11.flac16.87 MBN/A
lf2012-12-30-mtx.cafiero.ford-d1t12.flac29.08 MBN/A
lf2012-12-30-mtx.cafiero.ford-d1t13.flac5.54 MBN/A
lf2012-12-30-mtx.cafiero.ford-d2t01.flac40.08 MBN/A
lf2012-12-30-mtx.cafiero.ford-d2t02.flac27.07 MBN/A
lf2012-12-30-mtx.cafiero.ford-d2t03.flac9.63 MBN/A
lf2012-12-30-mtx.cafiero.ford-d2t04.flac28.35 MBN/A
lf2012-12-30-mtx.cafiero.ford-d2t05.flac65.06 MBN/A
lf2012-12-30-mtx.cafiero.ford-d2t06.flac48.32 MBN/A
lf2012-12-30-mtx.cafiero.ford-d2t07.flac22.36 MBN/A
lf2012-12-30-mtx.cafiero.ford-d2t08.flac18.38 MBN/A
Peers
[See full list]
1 seeder, 0 leechers = 1 peer total

Add a comment

Albix 2013-01-05 16:19:03
Round 2 here. Chris did yet another great job, thanks man!

When you download this one, do yourself a big favor and crank it up on something other than your laptop, something that will bring out the bass, cause this one ROCKS!

NYE show will be up next, enjoy!
Featroller 2013-01-05 16:39:12
Really looking forward to getting my ears on this one!
bobfan2 2013-01-05 22:48:45
thanks a lot for LF in Washington D.C. Very much appreciated
imskiing 2013-01-05 22:58:26
happy new year and thank you for this one. you can't pass up a DC show.

i heard about paul's hiatus. man that sucks.

i caught the feat in albany and they were great. i hope someone got that one to share. the keyboard guy from the opening band (connor kennedy band) couldn't make it, so billy played keys with them. it was great too.

thanks again for everything!
Albix 2013-01-06 16:18:21
Now on archive.org ~> http://archive.org/details/lf2012-12-30.mtx.cafiero.ford.123377.sbeok.flac16

NYE show will be next :)


alexang5 2013-01-18 15:35:29
Thanks for taping & sharing

Add a comment


http://etree.org : http://db.etree.org : http://forums.etree.org : http://wiki.etree.org : Legal : RSS Feed

Contents designed & maintained by the etree.org volunteers
1998-2014, etree.org, except where noted. All Rights Reserved.
Read our terms of service and privacy guidelines