bt.etree.org
etree.org Community Bittorrent Tracker
ArtistBernie Worrell and the WOO War
ShowBernie Worrell Orchestra Gemstones Lowell, Massachusetts 1/5/2013 (Schoeps CCm4V 'S FOB)
Report this as
non-Trade-Friendly
Email us
Torrentbwo2013-01-05.flac16.torrent (click to download)
Downloads asbwo2013-01-05.flac16
Info hash5dd0f838ece193e843a685663d3f1be50845c6c9
db linkhttp://db.etree.org/shn/128877 | Show | Source
DescriptionBernie Worrell Orchestra
Gemstones
Lowell,Massachusetts
1/5/2013

Source: Schoeps CCM4V'S(din)>Lunatec V2>Benchmark AD2K>
Sound Devices 722 (24/48)
FOB/DFC/KFC/ZFC/AARP 11' From Stage, 7' High
DSP: Sound Devices 722>Sound Forge 9.0>CD Wave>flac(16)
Recorded By: Z-Man
Seeded By: Z-Man

Disc I

01 Intro Jam >
02 Woo Together
03 Technical Difficulties
04 Bernie WorreLL Orchestra Is Landing
05 Thug
06 *Take Me To The River

Disc II

01 Why Spy >
02 Super Stupid
03 Come Together
04 Mothership Connection
05 #Get Your Hands Off
06 @? With Band Introductions

* With We Got The Funk Jam
# With Saxophone Player From The Romano Project
@ With Riders On The Storm Jam

Bernie Worrell - Keyboards
Kyle Cadena -- Guitar
Andrew Kimball -- Guitar
Scott Hogan -- Bass
Glen Fittin -- Percussion
Shlomi Cohen -- Alto Sax
Ofer Assaf -- Tenor Sax
Justin Mullens -- Trumpet
Evan Taylor, Bandleader -- Drums

Flac Fingerprint

bwo2013-01-05d01t01.flac:c3f857c41995a0434382603b85a9f0ea
bwo2013-01-05d01t02.flac:f88ca7d4a95ccd38c1715e367112126c
bwo2013-01-05d01t03.flac:f6794850e5f81d15f366e2483883070a
bwo2013-01-05d01t04.flac:506d4c3da5c4363e5e6accfe1cb7bc3e
bwo2013-01-05d01t05.flac:94cf9fe88deca820e233ce3b8382f6fe
bwo2013-01-05d01t06.flac:b0391de7feb1ed07c2a2f71f3a5012f3
bwo2013-01-05d02t01.flac:1ee815d1575ab57fea353dc3d5517fcd
bwo2013-01-05d02t02.flac:444ce6ae6f273bf86f5efa29367e0eff
bwo2013-01-05d02t03.flac:6a0b1b833d65261e1e45739610ae6954
bwo2013-01-05d02t04.flac:b12051d4778f6d9d991794e87bc5fd0e
bwo2013-01-05d02t05.flac:3874ff8b7978dab4e677b30bd4c72ec3
bwo2013-01-05d02t06.flac:469144f71a7e6de09f593a6fc8fd4694

Shntool

length expanded size cdr WAVE problems fmt ratio filename
12:21.60 130853564 B --- -- ---xx flac 0.5465 bwo2013-01-05d01t01.flac
4:37.28 48928700 B --- -- ---xx flac 0.5982 bwo2013-01-05d01t02.flac
2:41.59 28539212 B --- -- ---xx flac 0.3730 bwo2013-01-05d01t03.flac
5:18.67 56252828 B --- -- ---xx flac 0.5724 bwo2013-01-05d01t04.flac
9:17.24 98311292 B --- -- ---xx flac 0.5544 bwo2013-01-05d01t05.flac
12:37.25 133593644 B --- -- ---xx flac 0.5582 bwo2013-01-05d01t06.flac
6:48.59 72110012 B --- -- ---xx flac 0.5819 bwo2013-01-05d02t01.flac
3:23.11 35835116 B --- -- ---xx flac 0.6445 bwo2013-01-05d02t02.flac
5:04.26 53686796 B --- -- ---xx flac 0.4628 bwo2013-01-05d02t03.flac
10:02.60 106333964 B --- -- ---xx flac 0.5643 bwo2013-01-05d02t04.flac
9:28.16 100232876 B --- -- ---xx flac 0.5949 bwo2013-01-05d02t05.flac
14:20.26 151765196 B --- -- ---xx flac 0.5407 bwo2013-01-05d02t06.flac
96:02.11 1016443200 B 0.5552 (12 files)

















Checksumsbwo2013-01-05d01t01.flac:c3f857c41995a0434382603b85a9f0ea<br />
bwo2013-01-05d01t02.flac:f88ca7d4a95ccd38c1715e367112126c<br />
bwo2013-01-05d01t03.flac:f6794850e5f81d15f366e2483883070a<br />
bwo2013-01-05d01t04.flac:506d4c3da5c4363e5e6accfe1cb7bc3e<br />
bwo2013-01-05d01t05.flac:94cf9fe88deca820e233ce3b8382f6fe<br />
bwo2013-01-05d01t06.flac:b0391de7feb1ed07c2a2f71f3a5012f3<br />
bwo2013-01-05d02t01.flac:1ee815d1575ab57fea353dc3d5517fcd<br />
bwo2013-01-05d02t02.flac:444ce6ae6f273bf86f5efa29367e0eff<br />
bwo2013-01-05d02t03.flac:6a0b1b833d65261e1e45739610ae6954<br />
bwo2013-01-05d02t04.flac:b12051d4778f6d9d991794e87bc5fd0e<br />
bwo2013-01-05d02t05.flac:3874ff8b7978dab4e677b30bd4c72ec3<br />
bwo2013-01-05d02t06.flac:469144f71a7e6de09f593a6fc8fd4694
TypeBernie Worrell and the WOO War
Last seederLast activity 8 days, 11:10:48 ago
Size538.15 MB (564288017 Bytes)
Added2013-01-06 03:06:43
Views0
Hits258
Snatched107 times
Upped byzmanatl
Num files
[See full list]
13 files
Seeders
[Hide list]
0 Seeder(s)
Leechers
[Hide list]
0 Leecher(s)

Add a comment

ColoradoCorey 2013-01-06 05:20:32
looks good zman
georgeforman 2013-01-06 05:42:04
Yeah, looks real good
thanks
colinw 2013-01-06 07:22:49
thank you very much. Love the BWO!
phil_er_up 2013-01-06 08:04:54
Thank Z for your time and effort.

Who is in this band?
colinw 2013-01-06 10:08:09
Kyle Cadena -- Guitar
Andrew Kimball -- Guitar
Scott Hogan -- Bass
Glen Fittin -- Percussion
Shlomi Cohen -- Alto Sax
Ofer Assaf -- Tenor Sax
Justin Mullens -- Trumpet
Bernie Worrell - keys
Evan Taylor, Bandleader -- Drums


Zman - will you be upping this to the LMA?
bigdaddybflo 2013-01-06 10:37:19
What was for the late nite snack ???
sean612 2013-01-06 13:07:22
Thanks.
_MULETAPER 2013-01-06 15:31:20
>>>What was for the late nite snack ???


KFC! :-)
zmanatl 2013-01-06 21:59:35
I always love seeing Bernie, in ANY incarnation. I was psyched to see this band. I got there in plenty of time to set up as there were 2 bands before BWO. I grabbed my sweet spot against a pole, 11' from stage. The sound was not the greatest in the room and it was a challenge guarding my gear, especially with a very bad knee. The vocals were very weak. I mentioned something to the sound engineer in a nice way. Did not help. You can hear Bernie talking to him after each of the first 4-5 songs asking for different instruments in the monitors. Sad.

All in all, still a solid performance by Bernie and the great young musicians he has gathered for his band. Here are the videos I shot to give you a feel for the room:

BWO Is Landing:
http://youtu.be/NheT0n91N8A

Come Together:
http://youtu.be/xMohC8tIw6Y

Get Your Hands Off:
http://youtu.be/03HKiXs5nNU

Intro Jam >
Woo Together:
http://youtu.be/1QD4AY9g9DI

Why Spy >
Super Stupid:
http://youtu.be/K6JrIeUPCnM

Set Closer:
http://youtu.be/QyLQElllYIw

Mothership Connection:
http://youtu.be/IU1o2FBNrrk

Thug:
http://youtu.be/t8gUvISSheg

Take Me To The River:
http://youtu.be/PUpDAaaSHx4

Passed up on hitting the Club Diner and feasted on Spicy Chicken and Broccoli with Vegetable Fried Rice.

Enjoy Show #2 of 2013!
dr funkenstein 2013-01-08 10:18:30
Thanks for the WOO

Add a comment


http://etree.org : http://db.etree.org : http://forums.etree.org : http://wiki.etree.org : Legal : RSS Feed

Contents designed & maintained by the etree.org volunteers
1998-2014, etree.org, except where noted. All Rights Reserved.
Read our terms of service and privacy guidelines