bt.etree.org
etree.org Community Bittorrent Tracker
ArtistGrateful Dead
Showgd82-08-03.77196.sbd.miller.t-flac16
Report this as
non-Trade-Friendly
Email us
Torrentgd82-08-03.77196.sbd.miller.sbeok.t-flac16.torrent (click to download)
Downloads asgd82-08-03.77196.sbd.miller.sbeok.t-flac16
Info hashc0ff8bb214002673ab1162c2dd9a1ff2396d9ac9
db linkhttp://db.etree.org/shn/77196 | Show | Source
DescriptionThis is a tagged version of shnid: 77196

Grateful Dead
August 3, 1982
Starlight Theatre
Kansas City, MO

Recording Info:
SBD -> Cassette Master -> PCM -> Dat -> CD

Transfer Info:
CD -> Samplitude Professional v7.02 -> FLAC
(3 Discs Audio / 2 Discs FLAC)

All Transfers and Mastering By Charlie Miller
charliemiller87@earthlink.net
September 1, 2006

Patch Info:
(FOB/27th Row) Senn 441 -> Cassette Master -> Dat -> CD supplies
Mississippi Half Step (0:00 - 0:29)
Peggy-O (0:00 - 0:27)
Big Railroad Blues (0:00 - 0:02)
Let It Grow (10:39 - 10:52)
The Other One (6:00 - 6:15)
Stella Blue (6:06 - End Of Show)

Notes:
-- Can not confirm lineage...I have my doubts
-- 2nd Set disc change is seamless
____________________________________________________________________________

--Set 1--
101-d1t01 - Mississippi Half-Step Uptown Toodeloo ->
102-d1t02 - Franklin's Tower ->
103-d1t03 - New Minglewood Blues
104-d1t04 - Peggy-O
104-d1t05 - El Paso ->
105-d1t06 - Cumberland Blues
106-d1t07 - Althea
107-d1t08 - Cassidy
108-d1t09 - Big Railroad Blues ->
109-d1t10 - Man Smart (Woman Smarter)
110-d1t11 - Might as Well

--Set 2--
201-d2t01 - Shakedown Street ->
202-d2t02 - Samson & Delilah
203-d2t03 - To Lay Me Down
204-d3t01 - Let It Grow ->
205-d3t02 - Drums ->
206-d3t03 - Space ->
207-d3t04 - He's Gone ->
208-d3t05 - The Other One ->
209-d3t06 - Stella Blue ->
210-d3t07 - Sugar Magnolia

--Encore--
211-d3t08 - Casey Jones
_____________________________________________________________________________

Tagging notes:
Show information is embedded within the header of each flac file.
It will display on any player capable of directly playing flac
files. If converted to wav during processing, all tags will be
stripped, however audio data will remain unaffected. If you must
transcode to a lossy format, do so directly Flac > Lossy.
Use ffp to validate audio integrity.
Md5 values will change if tagging is altered.
B. Proctor 10-26-10
_____________________________________________________________________________

SHNTOOL OUTPUT:
length expanded size cdr WAVE problems filename
8:36.53 91147100 --- -- ----- gd82-08-03d1t01.wav
11:27.27 121250348 --- -- ----- gd82-08-03d1t02.wav
6:55.52 73328348 --- -- ----- gd82-08-03d1t03.wav
7:43.27 81736748 --- -- ----- gd82-08-03d1t04.wav
4:37.00 48862844 --- -- ----- gd82-08-03d1t05.wav
6:14.57 66107708 --- -- ----- gd82-08-03d1t06.wav
8:40.09 91749212 --- -- ----- gd82-08-03d1t07.wav
6:48.70 72135884 --- -- ----- gd82-08-03d1t08.wav
5:48.13 61417820 --- -- ----- gd82-08-03d1t09.wav
7:33.69 80071532 --- -- ----- gd82-08-03d1t10.wav
4:27.44 47202332 --- -- ----- gd82-08-03d1t11.wav
14:32.68 153980780 --- -- ----- gd82-08-03d2t01.wav
8:31.17 90180428 --- -- ----- gd82-08-03d2t02.wav
9:01.55 95561804 --- -- ----- gd82-08-03d2t03.wav
13:23.03 141656300 --- -- ----- gd82-08-03d3t01.wav
8:51.37 93755468 --- -- ----- gd82-08-03d3t02.wav
9:32.04 100910252 --- -- ----- gd82-08-03d3t03.wav
12:07.36 128327516 --- -- ----- gd82-08-03d3t04.wav
8:41.38 91993820 --- -- ----- gd82-08-03d3t05.wav
10:39.25 112778444 --- -- ----- gd82-08-03d3t06.wav
9:02.25 95667644 --- -- ----- gd82-08-03d3t07.wav
4:52.11 51534716 --- -- ----- gd82-08-03d3t08.wav
188:08.65 1991357048 B (totals for 22 files)
Checksumsgd82-08-03d1t01.flac:0fb3562fe98d696e71307028e62ad4b3
gd82-08-03d1t02.flac:240e59e2550f10bc427ab20df03eb93f
gd82-08-03d1t03.flac:e2c125b6002f09a2d954a5ae0bbeddd1
gd82-08-03d1t04.flac:09b181b46f9241baa26501356d07375c
gd82-08-03d1t05.flac:de9674f7e71377edee1a30343893302a
gd82-08-03d1t06.flac:7c3f4ba406fd3a2bdfbd483c76b245ff
gd82-08-03d1t07.flac:b13079bdbab4d9c19bcaf985adeb614c
gd82-08-03d1t08.flac:eb308c406925ef49b16446ed1193df4b
gd82-08-03d1t09.flac:401de3b70782d4736f3b9fb5db5b707a
gd82-08-03d1t10.flac:c98672049cf72b7a04d20c628eb3ba4b
gd82-08-03d1t11.flac:41d89d6470cfab56562d2aac9e6a97c1
gd82-08-03d2t01.flac:786d7caf6e70059dca96104edc7c4767
gd82-08-03d2t02.flac:e4ecaf57cf5b1ed6bc376be7806b4980
gd82-08-03d2t03.flac:97d841f7ca6d35f2b1288ab86eeba3f4
gd82-08-03d3t01.flac:6abb08acb530f458153091bd5e5de416
gd82-08-03d3t02.flac:e9b4955b53f0178b7886dee5b30528d1
gd82-08-03d3t03.flac:cd938be6e08257f30ec01a4db6770547
gd82-08-03d3t04.flac:179e9c1aa3ed494f0ec964c372ef8daa
gd82-08-03d3t05.flac:18685e02c284eb2e65e7bbee2e02c809
gd82-08-03d3t06.flac:9e630b7ddb8ecb1d617ffa755941fd3a
gd82-08-03d3t07.flac:aff2228818b1e6ab00a01d2c8f84734a
gd82-08-03d3t08.flac:f9552ba839bb99dd59db65d2a0fdac95
TypeGrateful Dead
Last seederLast activity 29:29 ago
Size1.251 GB (1343059806 Bytes)
Added2013-01-06 08:27:22
Views0
Hits478
Snatched285 times
Upped bygermain
Num files25 files
File List
[Hide list]
filenamesizemd5
gd82-08-03.77196.tagged.md51.3 kBN/A
gd82-08-03.77196.txt3.7 kBN/A
gd82-08-03.ffp1.2 kBN/A
gd82-08-03d1t01.flac57.89 MBN/A
gd82-08-03d1t02.flac81.32 MBN/A
gd82-08-03d1t03.flac48.47 MBN/A
gd82-08-03d1t04.flac51.96 MBN/A
gd82-08-03d1t05.flac31.88 MBN/A
gd82-08-03d1t06.flac43.42 MBN/A
gd82-08-03d1t07.flac59.14 MBN/A
gd82-08-03d1t08.flac47.06 MBN/A
gd82-08-03d1t09.flac41.62 MBN/A
gd82-08-03d1t10.flac54.07 MBN/A
gd82-08-03d1t11.flac32.04 MBN/A
gd82-08-03d2t01.flac101.86 MBN/A
gd82-08-03d2t02.flac60.95 MBN/A
gd82-08-03d2t03.flac60.39 MBN/A
gd82-08-03d3t01.flac93.68 MBN/A
gd82-08-03d3t02.flac57.24 MBN/A
gd82-08-03d3t03.flac61.04 MBN/A
gd82-08-03d3t04.flac82.18 MBN/A
gd82-08-03d3t05.flac60.34 MBN/A
gd82-08-03d3t06.flac68.19 MBN/A
gd82-08-03d3t07.flac56.29 MBN/A
gd82-08-03d3t08.flac29.82 MBN/A
Peers
[See full list]
2 seeders, 0 leechers = 2 peers total

Add a comment

jerome70 2013-01-06 19:30:04
thanx! To Lay Me Down is said to be sweet.

Add a comment


http://etree.org : http://db.etree.org : http://forums.etree.org : http://wiki.etree.org : Legal : RSS Feed

Contents designed & maintained by the etree.org volunteers
1998-2014, etree.org, except where noted. All Rights Reserved.
Read our terms of service and privacy guidelines