bt.etree.org
etree.org Community Bittorrent Tracker
ArtistOther
ShowThe Big Sway Gemstones Lowell, Massachusetts 1/5/2013 (Schoeps CCm4V 'S FOB)
Report this as
non-Trade-Friendly
Email us
Torrentthebigsway2013-01-05.flac16.torrent (click to download)
Downloads asthebigsway2013-01-05.flac16
Info hash9c5cd47f23fc24e3c77becf4568c74a90c1d6509
DescriptionThe Big Sway
Gemstones
Lowell,Massachusetts
1/5/2013

Source: Schoeps CCM4V'S(din)>Lunatec V2>Benchmark AD2K>
Sound Devices 722 (24/48)
FOB/DFC/KFC/ZFC/AARP 11' From Stage, 7' High
DSP: Sound Devices 722>Sound Forge 9.0>CD Wave>flac(16)
Recorded By: Z-Man
Seeded By: Z-Man

Disc I

01 Suitcase
02 Caught In A Knot
03 So Sorry
04 Heat Wave
05 Hits With A Headache
06 If The World
07 Wild Sound
08 Join Us
09 9
10 *The Cheese
11 *After Party

* With Seth Bailin On Saxophone

Flac Fingerprint

thebigsway2013-01-05d01t01.flac:7dafe6f514ce2f1de5eb510f695d761a
thebigsway2013-01-05d01t02.flac:2b8edb8567ade322b7a5b1f7b664a119
thebigsway2013-01-05d01t03.flac:8a583d1fe3761f851eb2d6e197c615a4
thebigsway2013-01-05d01t04.flac:fc53443be88fe6970d8a79a557cd6fc5
thebigsway2013-01-05d01t05.flac:57fc53f2b1091b7488a8274d22a0568c
thebigsway2013-01-05d01t06.flac:52e803e4be3e9719e9f0ca546fc7483b
thebigsway2013-01-05d01t07.flac:1bbc311499c336c903b03ced6a1f531a
thebigsway2013-01-05d01t08.flac:c996ef9d6dce804a96ae4a7bb8085fa2
thebigsway2013-01-05d01t09.flac:c2d79b53372576981eb2ebf8ca1efb14
thebigsway2013-01-05d01t10.flac:60c3a418f357227bb75567cfd28bd16a
thebigsway2013-01-05d01t11.flac:07957148bcd70dcbc678d2570c28af2f

Shntool

length expanded size cdr WAVE problems fmt ratio filename
4:46.27 50513948 B --- -- ---xx flac 0.5577 thebigsway2013-01-05d01t01.flac
4:16.09 45179612 B --- -- ---xx flac 0.6223 thebigsway2013-01-05d01t02.flac
5:17.63 56067020 B --- -- ---xx flac 0.5503 thebigsway2013-01-05d01t03.flac
5:12.04 55046252 B --- -- ---xx flac 0.5659 thebigsway2013-01-05d01t04.flac
4:15.53 45106700 B --- -- ---xx flac 0.6004 thebigsway2013-01-05d01t05.flac
8:27.40 89528924 B --- -- ---xx flac 0.5624 thebigsway2013-01-05d01t06.flac
5:54.58 62582060 B --- -- ---xx flac 0.5936 thebigsway2013-01-05d01t07.flac
5:59.53 63452300 B --- -- ---xx flac 0.5892 thebigsway2013-01-05d01t08.flac
6:25.62 68059868 B --- -- ---xx flac 0.5709 thebigsway2013-01-05d01t09.flac
5:32.43 58665980 B --- -- ---xx flac 0.5813 thebigsway2013-01-05d01t10.flac
7:45.44 82129532 B --- -- ---xx flac 0.5765 thebigsway2013-01-05d01t11.flac
63:54.06 676332196 B 0.5775 (11 files)




Checksumsthebigsway2013-01-05d01t01.flac:7dafe6f514ce2f1de5eb510f695d761a
thebigsway2013-01-05d01t02.flac:2b8edb8567ade322b7a5b1f7b664a119
thebigsway2013-01-05d01t03.flac:8a583d1fe3761f851eb2d6e197c615a4
thebigsway2013-01-05d01t04.flac:fc53443be88fe6970d8a79a557cd6fc5
thebigsway2013-01-05d01t05.flac:57fc53f2b1091b7488a8274d22a0568c
thebigsway2013-01-05d01t06.flac:52e803e4be3e9719e9f0ca546fc7483b
thebigsway2013-01-05d01t07.flac:1bbc311499c336c903b03ced6a1f531a
thebigsway2013-01-05d01t08.flac:c996ef9d6dce804a96ae4a7bb8085fa2
thebigsway2013-01-05d01t09.flac:c2d79b53372576981eb2ebf8ca1efb14
thebigsway2013-01-05d01t10.flac:60c3a418f357227bb75567cfd28bd16a
thebigsway2013-01-05d01t11.flac:07957148bcd70dcbc678d2570c28af2f
TypeOther
Last seederLast activity 60 days, 17:53:25 ago
Size372.48 MB (390569850 Bytes)
Added2013-01-06 17:57:57
Views0
Hits118
Snatched13 times
Upped byzmanatl
Num files12 files
File List
[Hide list]
filenamesizemd5
thebigsway2013-01-05d01t06.flac48.02 MBN/A
thebigsway2013-01-05d01t11.flac45.16 MBN/A
thebigsway2013-01-05d01t09.flac37.05 MBN/A
thebigsway2013-01-05d01t08.flac35.65 MBN/A
thebigsway2013-01-05d01t07.flac35.43 MBN/A
thebigsway2013-01-05d01t10.flac32.52 MBN/A
thebigsway2013-01-05d01t04.flac29.71 MBN/A
thebigsway2013-01-05d01t03.flac29.42 MBN/A
thebigsway2013-01-05d01t01.flac26.87 MBN/A
thebigsway2013-01-05d01t02.flac26.81 MBN/A
thebigsway2013-01-05d01t05.flac25.83 MBN/A
thebigsway2013--01-05.textfile.txt2.5 kBN/A
Peers
[See full list]
1 seeder, 0 leechers = 1 peer total

Add a comment

zmanatl 2013-01-06 21:45:03
Here are videos of the last 2 songs with Seth Bailin sitting in on Saxophone. These guys put out a nice 1 hour set before Bernie Worrell.

After Party:
http://youtu.be/7LSLCwxvi-g

The Cheese:
http://youtu.be/2eIb8pRQwr8

Enjoy Show #2 of 2013!

Add a comment


http://etree.org : http://db.etree.org : http://forums.etree.org : http://wiki.etree.org : Legal : RSS Feed

Contents designed & maintained by the etree.org volunteers
1998-2014, etree.org, except where noted. All Rights Reserved.
Read our terms of service and privacy guidelines