bt.etree.org
etree.org Community Bittorrent Tracker
ArtistGovt Mule
ShowGov't Mule 2012-10-26 Orpheum Theatre Boston, MA DPA 4023>V3>AD2K**16bit**
Report this as
non-Trade-Friendly
Email us
Torrentmule2012-10-26_dpa4023_1644_FLAC.torrent (click to download)
Downloads asmule2012-10-26_dpa4023_1644_FLAC
Info hashd6c2bf7a4e768b122aaf9abb0bb62014e10a8b7d
db linkhttp://db.etree.org/shn/123388 | Show | Source
DescriptionGov't Mule
2012-10-26
Orpheum Theatre
Boston, MA

Recorded by John Lynch

Transferred by Andy Murray

FOB DFC ORTF row m seat 110

DPA 4023>Lunatec V3>AD2K>Tascam HD-P2(24bit/48khz)

WAV>USB>Macbook Pro>Wave Editor(tracking,fades,swap channels,resample(izotope)/dither(mbit+)to 16 bit/44.1k)>XAct(FLAC 8,ffp,fix sbe)

The second set is missing 5 seconds during the opening song

The Lee Boys opened

2 Sets

Set 1:

01 Jam >
02 Any Open Window >
03 Steppin' Lightly
04 Bad Little Doggie >
05 Lola Leave Your Light On >
06 Lay Your Burden Down
07 Unring The Bell
08 Endless Parade
09 Thorazine Shuffle

Set 2:

01 One Of These Days >
02 Bus Stop >
03 Larger Than Life >
04 Presence Of The Lord >
05 Beautifully Broken >
06 Lively Up Yourself >
07 Drum Solo >
08 Drums And Bass Duet >
09 I Shall Return >
10 Drift Away >
11 I Shall Return >
12 Soulshine >
13 Mule >
14 Whole Lotta Love >
15 Mule

Encore:
16 Thanks/Banter
17 *John The Revelator >
18 *Feel Like Breakin' Up Someone's Home

* With Roosevelt Collier Of The Lee Boys On Lap Steel

length expanded size cdr WAVE problems fmt ratio filename
1:03.39 11204972 B --- -- ----- wav 1.0000 mule2012-10-26_dpa4023_1644_d1t01.wav
2:05.16 22087676 B --- -- ----- wav 1.0000 mule2012-10-26_dpa4023_1644_d1t02.wav
5:00.53 53044700 B --- -- ----- wav 1.0000 mule2012-10-26_dpa4023_1644_d1t03.wav
8:17.18 87713180 B --- -- ----- wav 1.0000 mule2012-10-26_dpa4023_1644_d1t04.wav
4:06.43 43495580 B --- -- ----- wav 1.0000 mule2012-10-26_dpa4023_1644_d1t05.wav
6:49.41 72244076 B --- -- ----- wav 1.0000 mule2012-10-26_dpa4023_1644_d1t06.wav
6:34.12 69529868 B --- -- ----- wav 1.0000 mule2012-10-26_dpa4023_1644_d1t07.wav
9:22.12 99165068 B --- -- ----- wav 1.0000 mule2012-10-26_dpa4023_1644_d1t08.wav
9:23.40 99407324 B --- -- ----- wav 1.0000 mule2012-10-26_dpa4023_1644_d1t09.wav
13:51.38 146677820 B --- -- ----- wav 1.0000 mule2012-10-26_dpa4023_1644_d1t10.wav
6:14.54 66100652 B --- -- ----- wav 1.0000 mule2012-10-26_dpa4023_1644_d2t01.wav
6:52.69 72839132 B --- -- ----- wav 1.0000 mule2012-10-26_dpa4023_1644_d2t02.wav
7:01.52 74386748 B --- -- ----- wav 1.0000 mule2012-10-26_dpa4023_1644_d2t03.wav
5:12.67 55194428 B --- -- ----- wav 1.0000 mule2012-10-26_dpa4023_1644_d2t04.wav
7:40.40 81238124 B --- -- ----- wav 1.0000 mule2012-10-26_dpa4023_1644_d2t05.wav
10:40.41 112992476 B --- -- ----- wav 1.0000 mule2012-10-26_dpa4023_1644_d2t06.wav
5:21.16 56662076 B --- -- ----- wav 1.0000 mule2012-10-26_dpa4023_1644_d2t07.wav
2:42.39 28668572 B --- -- ----- wav 1.0000 mule2012-10-26_dpa4023_1644_d2t08.wav
5:04.42 53724428 B --- -- ----- wav 1.0000 mule2012-10-26_dpa4023_1644_d2t09.wav
2:21.71 25039436 B --- -- ----- wav 1.0000 mule2012-10-26_dpa4023_1644_d2t10.wav
1:25.49 15109292 B --- -- ----- wav 1.0000 mule2012-10-26_dpa4023_1644_d2t11.wav
5:47.72 61380188 B --- -- ----- wav 1.0000 mule2012-10-26_dpa4023_1644_d2t12.wav
6:33.52 69447548 B --- -- ----- wav 1.0000 mule2012-10-26_dpa4023_1644_d2t13.wav
1:29.22 15751388 B --- -- ----- wav 1.0000 mule2012-10-26_dpa4023_1644_d2t14.wav
4:34.17 48373628 B --- -- ----- wav 1.0000 mule2012-10-26_dpa4023_1644_d2t15.wav
1:20.08 14130860 B --- -- ----- wav 1.0000 mule2012-10-26_dpa4023_1644_d2t16.wav
8:20.29 88268252 B --- -- ----- wav 1.0000 mule2012-10-26_dpa4023_1644_d2t17.wav
8:24.72 89074988 B --- -- ----- wav 1.0000 mule2012-10-26_dpa4023_1644_d2t18.wav
163:43.74 1732952480 B 1.0000 (28 files)
Checksums;flac fingerprints generated by xACT 2.21 on 2013-01-06 20:39:32 -0500

mule2012-10-26_dpa4023_1644_d1t01.flac:25c030478ee0a036b1fc2877ccd69ffa
mule2012-10-26_dpa4023_1644_d1t02.flac:e25d208d11139d848dff081369fab3c5
mule2012-10-26_dpa4023_1644_d1t03.flac:89c29513a2cd0a1944a117e3209e3727
mule2012-10-26_dpa4023_1644_d1t04.flac:f80cb0b856bd6456691e045c5a08418f
mule2012-10-26_dpa4023_1644_d1t05.flac:04b695ac6dc70cb2988b4b5bab8789f5
mule2012-10-26_dpa4023_1644_d1t06.flac:e755e4ca94368abbbf8755b8e39f932e
mule2012-10-26_dpa4023_1644_d1t07.flac:82cf8378e0385029327629225cd82d46
mule2012-10-26_dpa4023_1644_d1t08.flac:4a0da869ce3b9a7897eaf56dfcd95412
mule2012-10-26_dpa4023_1644_d1t09.flac:62ec5157652cc3c8c9cc49d6077ec0d2
mule2012-10-26_dpa4023_1644_d1t10.flac:b765edb88ccd43fc01a4455bc08104fa
mule2012-10-26_dpa4023_1644_d2t01.flac:81f86dd6b15cb2a1bc342bfacdc8fbe1
mule2012-10-26_dpa4023_1644_d2t02.flac:9850de55b6c89f415330aa680b7f092c
mule2012-10-26_dpa4023_1644_d2t03.flac:c3521ac7678aacc9d12e36017b266755
mule2012-10-26_dpa4023_1644_d2t04.flac:69ddd86e634ddea4c462b4e71f445ca4
mule2012-10-26_dpa4023_1644_d2t05.flac:5d62c2fbb55dd8d1a3709074f0204759
mule2012-10-26_dpa4023_1644_d2t06.flac:09ba1cef87ccbefe2622b11a23b9a67c
mule2012-10-26_dpa4023_1644_d2t07.flac:503a0d7d4aadac22f1aeb7c6cc510583
mule2012-10-26_dpa4023_1644_d2t08.flac:84292ca68f06d0ef787bd4f6c979473e
mule2012-10-26_dpa4023_1644_d2t09.flac:664ab15445e45bb24f18c811fd744877
mule2012-10-26_dpa4023_1644_d2t10.flac:ebdba526884b91075a4fe30071e2eb12
mule2012-10-26_dpa4023_1644_d2t11.flac:0ded8cc1196b2a9a78956971b71df63f
mule2012-10-26_dpa4023_1644_d2t12.flac:468035c287b5ba272be88dd8fa300a6e
mule2012-10-26_dpa4023_1644_d2t13.flac:220f443125a5f2bbd9d31d980d42c61d
mule2012-10-26_dpa4023_1644_d2t14.flac:847376883d3e330e9907281c4ea87b11
mule2012-10-26_dpa4023_1644_d2t15.flac:c7fdda9548bc65ef8ada7c8698ff0755
mule2012-10-26_dpa4023_1644_d2t16.flac:f7b892699bf8eeac877cf0d98cf6ef0a
mule2012-10-26_dpa4023_1644_d2t17.flac:a5cf1acf62e368532c181436360f2d71
mule2012-10-26_dpa4023_1644_d2t18.flac:311d2632d88cc05a4cbc4437c0dccd77
TypeGovt Mule
Last seederLast activity 30:22 ago
Size823.80 MB (863818085 Bytes)
Added2013-01-06 20:47:37
Views0
Hits306
Snatched86 times
Upped byandyjah
Num files
[See full list]
30 files
Seeders
[Hide list]
0 Seeder(s)
Leechers
[Hide list]
1 Leecher(s)
ip:portclient
version
ul
bytes
dl
bytes
ratiocompleteul
rate
dl
rate
time
connected
time
left
idle
124.51.207.xxx:35161 μtorrent 3.4.2.11 0 B 0 B N/A 0.00%
N/A N/A 7:00:46 N/A 30:22
0 of 1 firewalled (0%) 0.00%
N/AN/A

Add a comment

_MULETAPER 2013-01-06 21:45:16
Thanks for your source!! Cool!
zmanatl 2013-01-06 21:47:30
Nice assist Andy!
raimax 2013-01-06 22:25:15
thank you
chico1610 2013-01-07 01:06:53
thanks!
Tomahawk Kid 2013-01-07 03:40:02
Thank you very much!
_MULETAPER 2013-01-07 10:29:21
nice sounding recording thank you!
LAStubbe 2013-01-07 11:07:15
Love Mule through dpa's thanks fellas! Chunky!
africolaman 2013-01-07 14:10:16
Thanks.

Add a comment


http://etree.org : http://db.etree.org : http://forums.etree.org : http://wiki.etree.org : Legal : RSS Feed

Contents designed & maintained by the etree.org volunteers
1998-2014, etree.org, except where noted. All Rights Reserved.
Read our terms of service and privacy guidelines