bt.etree.org
etree.org Community Bittorrent Tracker
ArtistOther
ShowThe Romano Project Gemstones Lowell, Massachusetts 1/5/2013 (Schoeps CCm4V 'S FOB)
Report this as
non-Trade-Friendly
Email us
Torrentromano2013-01-05.flac16.torrent (click to download)
Downloads asromano2013-01-05.flac16
Info hash9ac42f0bee7e413046d7000f944eed86ba8a0d78
DescriptionThe Romano Project
Gemstones
Lowell,Massachusetts
1/5/2013

Source: Schoeps CCM4V'S(din)>Lunatec V2>Benchmark AD2K>
Sound Devices 722 (24/48)
FOB/DFC/KFC/ZFC/AARP 11' From Stage, 7' High
DSP: Sound Devices 722>Sound Forge 9.0>CD Wave>flac(16)
Recorded By: Z-Man
Seeded By: Z-Man

Disc I

01 Whatcha Doin'
02 All Over You
03 For No One
04 I'll Be Just Fine
05 All In Time
06 The Way You Move
07 Lottery
08 On The Edge

Flac Fingerprint

romano2013-01-05d01t01.flac:40f2b8934bc49427491937c1dc3fa6ac
romano2013-01-05d01t02.flac:779441fe0798adf5cbc9c62f95a440ec
romano2013-01-05d01t03.flac:69dffedfd306496ab68375cbbb050572
romano2013-01-05d01t04.flac:20501d4e65886c200bef6253036402c7
romano2013-01-05d01t05.flac:341d7f1e72b07aaaf749033ece3b2c33
romano2013-01-05d01t06.flac:3ff0f369ecb8f400ae2fe14149a746d9
romano2013-01-05d01t07.flac:cbadbd09e30a5d7798fd80b2682591fa
romano2013-01-05d01t08.flac:5479f02aead1ed3740f74209baf83f88

Shntool

length expanded size cdr WAVE problems fmt ratio filename
4:46.67 50608028 B --- -- ---xx flac 0.6045 romano2013-01-05d01t01.flac
4:26.17 46962428 B --- -- ---xx flac 0.5817 romano2013-01-05d01t02.flac
4:20.33 45941660 B --- -- ---xx flac 0.6024 romano2013-01-05d01t03.flac
6:05.28 64451900 B --- -- ---xx flac 0.5603 romano2013-01-05d01t04.flac
6:11.43 65545580 B --- -- ---xx flac 0.5884 romano2013-01-05d01t05.flac
4:59.15 52778924 B --- -- ---xx flac 0.5846 romano2013-01-05d01t06.flac
6:04.29 64277852 B --- -- ---xx flac 0.5423 romano2013-01-05d01t07.flac
6:25.33 67991660 B --- -- ---xx flac 0.5888 romano2013-01-05d01t08.flac
43:19.40 458558032 B 0.5801 (8 files)

















Checksumsromano2013-01-05d01t01.flac:40f2b8934bc49427491937c1dc3fa6ac
romano2013-01-05d01t02.flac:779441fe0798adf5cbc9c62f95a440ec
romano2013-01-05d01t03.flac:69dffedfd306496ab68375cbbb050572
romano2013-01-05d01t04.flac:20501d4e65886c200bef6253036402c7
romano2013-01-05d01t05.flac:341d7f1e72b07aaaf749033ece3b2c33
romano2013-01-05d01t06.flac:3ff0f369ecb8f400ae2fe14149a746d9
romano2013-01-05d01t07.flac:cbadbd09e30a5d7798fd80b2682591fa
romano2013-01-05d01t08.flac:5479f02aead1ed3740f74209baf83f88
TypeOther
Last seederLast activity 113 days, 04:49:58 ago
Size253.68 MB (266004881 Bytes)
Added2013-01-06 22:32:35
Views0
Hits135
Snatched12 times
Upped byzmanatl
Num files
[See full list]
9 files
Seeders
[Hide list]
0 Seeder(s)
Leechers
[Hide list]
0 Leecher(s)

No comments yet

Add a comment


http://etree.org : http://db.etree.org : http://forums.etree.org : http://wiki.etree.org : Legal : RSS Feed

Contents designed & maintained by the etree.org volunteers
1998-2014, etree.org, except where noted. All Rights Reserved.
Read our terms of service and privacy guidelines