bt.etree.org
etree.org Community Bittorrent Tracker
ArtistGrateful Dead
Showgd1977-05-25.upg-aud.tobin.123382.flac16
Report this as
non-Trade-Friendly
Email us
Torrentgd1977-05-25.upg-aud.tobin.123382.flac16.torrent (click to download)
Downloads asgd1977-05-25.upg-aud.tobin.123382.flac16
Info hashaf73f69df143997f1caf98d652c82b6f588ea543
db link | Show | Source
DescriptionGrateful Dead
The Mosque, Richmond, VA
May 25, 1977

Upgraded Audience - has been patched

shnid = 107757
Recorded with Nakamichi CM-300s> Nakamichi 550 (except for Cassidy through Promised Land; recorded with Sony ECM-99> Sony 158)

Transfer and FLAC encoding by David Minches:
3rd generation reel played back on Otari MX-5050BII> Korg MR-1000 (DSF [1-bit 5.6448 MHz Stereo]) Korg AudioGate > WAV [24/96] > Adobe Audition 3.0> Ozone 4.0> FLAC encoding

Speed/Pitch Correction by Joe B. Jones.

Patching using source SHNID 87591.

Thanks to Pat Lee for providing the reel.

Set 1:
d1t01 - Mississippi Half-Step Uptown Toodeloo
d1t02 - Jack Straw
d1t03 - They Love Each Other
d1t04 - Mexicali Blues
d1t05 - Peggy-O
d1t06 - Cassidy
d1t07 - Loser
d1t08 - Lazy Lightnin' ->
d1t09 - Supplication
d1t10 - Brown Eyed Women
d1t11 - The Promised Land

Set 2:
d2t01 - Scarlet Begonias ->
d2t02 - Fire On The Mountain
d2t03 - Estimated Prophet ->
d2t04 - He's Gone ->
d2t05 - Drums ->
d3t01 - The Other One ->
d3t02 - Wharf Rat ->
d3t03 - The Other One ->
d3t04 - The Wheel ->
d3t05 - Around And Around

Encore:
d3t06 - Johnny B. Goode

Other Audio Source Information:
Soundboard:
shnid = 87591
Recording Info:
SBD -> Master Reel -> Dat -> CD

Transfer Info:
CD -> Samplitude Professional v9.11 -> FLAC
(3 Discs Audio / 2 Discs FLAC)

All Transfers and Mastering By Charlie Miller
charliemiller87@earthlink.net
October 8, 2007

Notes:
-- Small drop out in Wharf Rat fixed
-- Set 2 is seamless
-- Cleaned up a lot of flaws and fixed the levels a bit
-- Reel flip between He's Gone and Drums

Audio Patches:
1) Between Mississippi Half-Step Uptown Toodeloo and Jack Straw, 20.846 seconds were missing from the audience and was filled using audio from the soundboard.

2) Between Jack Straw and They Love Each Other, 12.612 seconds were missing from the audience and was filled using audio from the soundboard.

3) Between They Love Each Other and Mexicali Blues, 04.096 seconds were missing from the audience and was filled using audio from the soundboard.

4) Between Peggy-O and Cassidy, 05.309 seconds were missing from the audience and was filled using audio from the soundboard.

5) Between Cassidy and Loser, 24.753 seconds were missing from the audience and was filled using audio from the soundboard.

6) Between Loser and Lazy Lightnin', 22.939 seconds were missing from the audience and was filled using audio from the soundboard.

7) Between Supplication and Brown Eyed Women, 17.955 seconds were missing from the audience and was filled using audio from the soundboard.

8) Between Brown Eyed Women and Promised Land, 06.513 seconds were missing from the audience and was filled using audio from the soundboard.

9) Between Fire On The Mountain and Estimated Prophet, 32.323 seconds were missing from the audience and was filled using audio from the soundboard.

10) Close to the end of He's Gone, 19.976 seconds were missing from the audience and was filled using audio from the soundboard.

11) Close to the end of Around And Around, 33.330 seconds were missing from the audience and was filled using audio from the soundboard.
---------------------------------------------------------
- Mixed by kevtobin@yahoo.com
- FLAC conversion 05-JAN-2013 - Trader Little Helper
-Tagged 05-JAN-2013 - Tag&Rename
---------------------------------------------------------
length expanded size cdr WAVE problems fmt ratio filename
10:45.47 113888588 B --- -- ----- wav 1.0000 gd1977-05-25d1t01.wav
6:17.63 66651020 B --- -- ----- wav 1.0000 gd1977-05-25d1t02.wav
7:21.16 77830076 B --- -- ----- wav 1.0000 gd1977-05-25d1t03.wav
3:36.52 38224748 B --- -- ----- wav 1.0000 gd1977-05-25d1t04.wav
7:45.36 82110716 B --- -- ----- wav 1.0000 gd1977-05-25d1t05.wav
5:24.06 57167756 B --- -- ----- wav 1.0000 gd1977-05-25d1t06.wav
8:34.74 90843692 B --- -- ----- wav 1.0000 gd1977-05-25d1t07.wav
3:11.67 33850028 B --- -- ----- wav 1.0000 gd1977-05-25d1t08.wav
5:14.45 55495484 B --- -- ----- wav 1.0000 gd1977-05-25d1t09.wav
6:11.00 65444444 B --- -- ----- wav 1.0000 gd1977-05-25d1t10.wav
4:23.65 46546124 B --- -- ----- wav 1.0000 gd1977-05-25d1t11.wav
10:31.29 111376652 B --- -- ----- wav 1.0000 gd1977-05-25d2t01.wav
11:54.62 126095468 B --- -- ----- wav 1.0000 gd1977-05-25d2t02.wav
8:39.17 91591628 B --- -- ----- wav 1.0000 gd1977-05-25d2t03.wav
13:53.52 147063548 B --- -- ----- wav 1.0000 gd1977-05-25d2t04.wav
5:08.18 54373580 B --- -- ----- wav 1.0000 gd1977-05-25d2t05.wav
14:55.72 158047388 B --- -- ----- wav 1.0000 gd1977-05-25d3t01.wav
11:09.22 118063388 B --- -- ----- wav 1.0000 gd1977-05-25d3t02.wav
3:39.72 38800988 B --- -- ----- wav 1.0000 gd1977-05-25d3t03.wav
5:23.64 57127772 B --- -- ----- wav 1.0000 gd1977-05-25d3t04.wav
8:53.28 94087100 B --- -- ----- wav 1.0000 gd1977-05-25d3t05.wav
4:13.24 44685692 B --- -- ----- wav 1.0000 gd1977-05-25d3t06.wav
167:10.31 1769365880 B 1.0000 (22 files)
Checksums

md5:
9b60f880287fa4b03d4654973ba97486 *gd1977-05-25d1t01.flac
1a145c304b8a0eef79d8ea6296365654 *gd1977-05-25d1t02.flac
6480e185fcaf8ee5355dcfad8f0e3129 *gd1977-05-25d1t03.flac
9468def40e5eacec83d6efbb7fe7a351 *gd1977-05-25d1t04.flac
1e9fbcd93db0e0771970ed72e39b67a2 *gd1977-05-25d1t05.flac
087294dbbe918f30a9ab2f16c3b8cc96 *gd1977-05-25d1t06.flac
f0596542f9d293df7aeb3ad71ae6e1c5 *gd1977-05-25d1t07.flac
6f5bfa2a2fd49a58ab8c1163e50535ef *gd1977-05-25d1t08.flac
da14b89797d50f7566254ca2456e02b5 *gd1977-05-25d1t09.flac
d67f7bc0eeb7706ebb3cb5d0bb6c771c *gd1977-05-25d1t10.flac
63697d7e04dc23135517a61e76cf6a09 *gd1977-05-25d1t11.flac
8fc5e06a28552c50e35c18f31e9acb1e *gd1977-05-25d2t01.flac
0ff20f70a7b05bcaaa499c2e4db42c1f *gd1977-05-25d2t02.flac
015fc1e2b423564c2e0d1f314ee5478a *gd1977-05-25d2t03.flac
52f5c48ba4bad6051951d6076957ece6 *gd1977-05-25d2t04.flac
d787521a813e06a243d2b9ae64528294 *gd1977-05-25d2t05.flac
8b0172f5ea355b5ff8e2a3f4b2e7b076 *gd1977-05-25d3t01.flac
8780a79c169c4980fe77ad3c660e3b81 *gd1977-05-25d3t02.flac
df66da3db654c837cfb712dd8bccb614 *gd1977-05-25d3t03.flac
5bdc520f2289c2b432332ff124cb0946 *gd1977-05-25d3t04.flac
b0cf312cf6ad34b613c44147d027ea1d *gd1977-05-25d3t05.flac
a2498f9389d19879fc37c7ad1896b7d0 *gd1977-05-25d3t06.flac


ffp:
gd1977-05-25d1t01.flac:a802d2081f8ce6c5fe0375ae4f365679
gd1977-05-25d1t02.flac:bcfe25edbf5807ad34ee175a1831ddb3
gd1977-05-25d1t03.flac:2eb25867bfb175c938e3930bed1e5edc
gd1977-05-25d1t04.flac:56f4b64a70ab4941ed3dde58f63a3494
gd1977-05-25d1t05.flac:458912d80776d8a5a1243a94b7cf9c32
gd1977-05-25d1t06.flac:0a904ae90f5e01f5a644bb611f4df3fc
gd1977-05-25d1t07.flac:db7a5e58acab6a4408b4cbbdc0e51c9b
gd1977-05-25d1t08.flac:af821d2abceaf7a666c328265ed47f81
gd1977-05-25d1t09.flac:00d22a85484a9be6b4c3e4fc835446d7
gd1977-05-25d1t10.flac:19c64b8f7a1f668ba19d73fe97caf006
gd1977-05-25d1t11.flac:91ace567c0ce00ba421a5e6f0d6ad215
gd1977-05-25d2t01.flac:dbb851c0de8a7e4f5a7760dced5718c8
gd1977-05-25d2t02.flac:ef5f11e2aa3b1f0a7777e1c97450c6b5
gd1977-05-25d2t03.flac:a9a10590f98a6a56f77947c0075c3b06
gd1977-05-25d2t04.flac:df14c932b1f3f9743628ed4f9ea60571
gd1977-05-25d2t05.flac:a8f0eb8a8d25f54b9c9b9713341ad57a
gd1977-05-25d3t01.flac:95f95b2fc7fc82b9c105347f6a29d9be
gd1977-05-25d3t02.flac:51165a12120abe5bcc5c452e8e08887f
gd1977-05-25d3t03.flac:45907735da1735120aa75f92940a876b
gd1977-05-25d3t04.flac:40c0f0d6c51ca3932a7af123709b65f4
gd1977-05-25d3t05.flac:f4d81487633debeb732660050f6c7842
gd1977-05-25d3t06.flac:7643260dbd173675351caa3afeac9b35
TypeGrateful Dead
Last seederLast activity 4:44 ago
Size939.52 MB (985154889 Bytes)
Added2013-01-07 11:10:06
Views0
Hits300
Snatched133 times
Upped bykevtobin
Num files
[See full list]
26 files
Peers
[See full list]
1 seeder, 0 leechers = 1 peer total

No comments yet

Add a comment


http://etree.org : http://db.etree.org : http://forums.etree.org : http://wiki.etree.org : Legal : RSS Feed

Contents designed & maintained by the etree.org volunteers
1998-2014, etree.org, except where noted. All Rights Reserved.
Read our terms of service and privacy guidelines