bt.etree.org
etree.org Community Bittorrent Tracker
ArtistOther
ShowDub Apocalypse Chianti Tuscan Restaurant And Jazz Lounge Beverly, Massachusetts 1/7/2013 (Schoeps CCM4V'S FOB)
Report this as
non-Trade-Friendly
Email us
Torrentdub2013-01-07.flac16.torrent (click to download)
Downloads asdub2013-01-07.flac16
Info hashc0206e84ac90a376ba1a8f941acf5d3b284f1fb3
DescriptionDub Apocalypse
Chianti Tuscan Restaurant And Jazz Lounge
Beverly,Massachusetts
1/7/2013

Source: Schoeps CCM4V'S(din)>Lunatec V2>Benchmark AD2K>
Sound Devices 722 (24/48)
FOB/DFC/KFC/ZFC/AARP Stage Lip, 3' High
DSP: Sound Devices 722>Sound Forge 9.0>CD Wave>flac(16)
Recorded By: Z-Man
Seeded By: Z-Man

Disc I 1st Set

01 Greeting
02 ?
03 ?
04 ?
05 ?
06 ?

Disc II 2nd Set

01 Tuning
02 ?
03 Fever
04 *The Breeze Train
05 *#?
06 *?

* With John Aruda On Tenor Saxophone
# With Tim Pike On Vocals

Johnny Trama - Guitar
Jeff Lockhart - Guitar
Timo Shanko - Bass
Scott Aruda - Trumpet
Tommy - Drums

Flac Fingerprint

dub2013-01-07d01t01.flac:917ff6df5d200ef193f167c8ca23fed7
dub2013-01-07d01t02.flac:23a0fda2f48781caf9c67a585dec718a
dub2013-01-07d01t03.flac:114f731ef05c54c3235970cbd45ef545
dub2013-01-07d01t04.flac:152b54a0dd0cb5097faa9b018fd089b8
dub2013-01-07d01t05.flac:289473ac1ad0b7a0b8f67f1496d6f2a0
dub2013-01-07d01t06.flac:07daed9633e9071f827d31da91b81dc7
dub2013-01-07d02t01.flac:5a80670f3f2578df574bd79f9e98dd41
dub2013-01-07d02t02.flac:b806c4c2c7eee2d305433f02e8498ddc
dub2013-01-07d02t03.flac:82133183861a17253bbbb4dfedf9778d
dub2013-01-07d02t04.flac:c1bc5ae5196939032bdc0932f6862e18
dub2013-01-07d02t05.flac:e315e63996521ffc041444efa8ea30c2
dub2013-01-07d02t06.flac:6740cf88eb9bd8ba1afe5ae565a3ca29

Shntool

length expanded size cdr WAVE problems fmt ratio filename
0:32.39 5736572 B --- -- ---xx flac 0.3264 dub2013-01-07d01t01.flac
12:10.43 128873180 B --- -- ---xx flac 0.5113 dub2013-01-07d01t02.flac
10:36.70 112355084 B --- -- ---xx flac 0.5541 dub2013-01-07d01t03.flac
11:38.08 123146060 B --- -- ---xx flac 0.5379 dub2013-01-07d01t04.flac
14:12.34 150372812 B --- -- ---xx flac 0.5479 dub2013-01-07d01t05.flac
12:56.47 136996988 B --- -- ---xx flac 0.5537 dub2013-01-07d01t06.flac
0:20.73 3699740 B --- -- ---xx flac 0.2456 dub2013-01-07d02t01.flac
10:58.70 116235884 B --- -- ---xx flac 0.5276 dub2013-01-07d02t02.flac
12:23.09 131086412 B --- -- ---xx flac 0.4966 dub2013-01-07d02t03.flac
13:28.53 142655900 B --- -- ---xx flac 0.5143 dub2013-01-07d02t04.flac
18:22.01 194395196 B --- -- ---xx flac 0.5592 dub2013-01-07d02t05.flac
11:33.33 122322860 B --- -- ---xx flac 0.5246 dub2013-01-07d02t06.flac
129:14.30 1367876688 B 0.5323 (12 files)



















Checksumsdub2013-01-07d01t01.flac:917ff6df5d200ef193f167c8ca23fed7
dub2013-01-07d01t02.flac:23a0fda2f48781caf9c67a585dec718a
dub2013-01-07d01t03.flac:114f731ef05c54c3235970cbd45ef545
dub2013-01-07d01t04.flac:152b54a0dd0cb5097faa9b018fd089b8
dub2013-01-07d01t05.flac:289473ac1ad0b7a0b8f67f1496d6f2a0
dub2013-01-07d01t06.flac:07daed9633e9071f827d31da91b81dc7
dub2013-01-07d02t01.flac:5a80670f3f2578df574bd79f9e98dd41
dub2013-01-07d02t02.flac:b806c4c2c7eee2d305433f02e8498ddc
dub2013-01-07d02t03.flac:82133183861a17253bbbb4dfedf9778d
dub2013-01-07d02t04.flac:c1bc5ae5196939032bdc0932f6862e18
dub2013-01-07d02t05.flac:e315e63996521ffc041444efa8ea30c2
dub2013-01-07d02t06.flac:6740cf88eb9bd8ba1afe5ae565a3ca29
TypeOther
Last seederLast activity 4:09 ago
Size694.37 MB (728095855 Bytes)
Added2013-01-08 02:48:26
Views0
Hits181
Snatched40 times
Upped byzmanatl
Num files
[See full list]
13 files
Seeders
[Hide list]
2 Seeder(s)
ip:portclient
version
ul
bytes
dl
bytes
ratiocompleteul
rate
dl
rate
time
connected
time
left
idle
107.3.161.xxx:51413 0 B 0 B N/A 100.00%
N/A N/A 34:10 N/A 34:10
107.3.161.xxx:51413 0 B 0 B N/A 100.00%
N/A N/A 6:34:19 N/A 1:04:09
0 of 2 firewalled (0%) 100.00%
N/AN/A
Leechers
[Hide list]
0 Leecher(s)

Add a comment

LAStubbe 2013-01-08 05:10:01
Thanks Z. Ill be downloading and filing this one as it's a real special date for us! :)
bigdaddybflo 2013-01-08 08:36:34
Go Papa Lenny GO !! Z , what was the late nite snack??
zmanatl 2013-01-08 09:53:37
Congrats Lenny!!!!!
andyjah 2013-01-10 16:35:09
Thanks for taping Dub Z.

Congrats as well Lenny!!!

Add a comment


http://etree.org : http://db.etree.org : http://forums.etree.org : http://wiki.etree.org : Legal : RSS Feed

Contents designed & maintained by the etree.org volunteers
1998-2014, etree.org, except where noted. All Rights Reserved.
Read our terms of service and privacy guidelines