bt.etree.org
etree.org Community Bittorrent Tracker
ArtistGrateful Dead
Showgd82-08-06.101618.mtx.seamons.t-flac16
Report this as
non-Trade-Friendly
Email us
Torrentgd82-08-06.101618.mtx.seamons.ht58.t-flac16.torrent (click to download)
Downloads asgd82-08-06.101618.mtx.seamons.ht58.t-flac16
Info hash99e641262ace64d3a0ce5c8cab1fc569de2e93f9
db linkhttp://db.etree.org/shn/101618 | Show | Source
DescriptionThis is a tagged version of shnid: 101618

Grateful Dead
August 6, 1982
St. Paul Civic Center
St. Paul, MN

Jerry Garcia - Lead Guitar, Vocals
Mickey Hart - Drums
Bill Kreutzmann - Drums
Phil Lesh - Electric Bass, Vocals
Brent Mydland - Keyboards, Vocals
Bob Weir - Rhythm Guitar, Vocals

*Matrix*
-----------------------------------------------------------------
SBD (shnid=16043):

MC > C1 > DAT > CDR > SHN
Steve Apria's soundboard master cassette->Mark Cohen's cassette->
DAT->CDR->.WAV->SHN
(Steve Apria lost the master cassette years ago)

-----------------------------------------------------------------
AUD (shnid=7288):

Recording by Ohr Weinberg from behind the stage:
Sony ECM 23-F's > Aud Master

A>D transfer by Jim Wise
shn conversion by Todd Norman norma023@tc.umn.edu
corrections/whatever -- feel free

-----------------------------------------------------------------
Thank you to Steve Apria, Mark Cohen, and Darryl Hinko for the
SBD transfer,to Ohr Weinberg for recording the show,
and to Jim Wise and Todd Norman for the AUD transfer.

Matrix by Hunter Seamons using Final Cut Pro
(SHN>AIFF>Final Cut>WAV>FLAC)
September 28, 2009
_______________________________________________________________________________

--Set 1--
101-d1t01 - Bertha ->
102-d1t02 - New Minglewood Blues
103-d1t03 - Candyman ->
104-d1t04 - Little Red Rooster
105-d1t05 - Bird Song ->
106-d1t06 - El Paso
107-d1t07 - Tennessee Jed
108-d1t08 - It's All Over Now
109-d1t09 - Lazy Lightning ->
110-d1t10 - Supplication
111-d1t11 - Might as Well

--Set 2--
201-d2t01 - Tuning
202-d2t02 - Scarlet Begonias ->
203-d2t03 - Fire on the Mountain
204-d2t04 - Lost Sailor ->
205-d2t05 - Saint of Circumstance ->
206-d2t06 - Jam ->
207-d2t07 - Drums ->
208-d3t01 - Space ->
209-d3t02 - Truckin' ->
210-d3t03 - Wharf Rat ->
211-d3t04 - Around & Around ->
212-d3t05 - Goin' Down the Road, Feeling Bad ->
213-d3t06 - Johnny B. Goode

--Encore--
214-d3t07 - It's All Over Now, Baby Blue
_______________________________________________________________________________

Notes:
1) A small cut in both the SBD and AUD at the beginning of El Paso, and
during Drums.

2) Set 2 of the SBD, except for the encore, was about 1.5% slower than set 1.
This was adjusted.
_______________________________________________________________________________

Tagging notes:
Show information is embedded within the header of each flac file.
It will display on any player capable of directly playing flac
files. If converted to wav during processing, all tags will be
stripped, however audio data will remain unaffected. If you must
transcode to a lossy format, do so directly Flac > Lossy.
Use ffp to validate audio integrity.
Md5 values will change if tagging is altered.
B. Proctor 10-27-10
_____________________________________________________________________________

length expanded size cdr WAVE problems fmt ratio filename
7:09.12 75703868 B --- -- ---xx gd82-08-06d1t01.flac
7:57.61 84286316 B --- -- ---xx gd82-08-06d1t02.flac
6:24.41 67834076 B --- -- ---xx gd82-08-06d1t03.flac
8:23.28 88795100 B --- -- ---xx gd82-08-06d1t04.flac
11:22.06 120318956 B --- -- ---xx gd82-08-06d1t05.flac
5:03.68 53609180 B --- -- ---xx gd82-08-06d1t06.flac
8:56.05 94562204 B --- -- ---xx gd82-08-06d1t07.flac
10:18.09 109036412 B --- -- ---xx gd82-08-06d1t08.flac
3:32.73 37568540 B --- -- ---xx gd82-08-06d1t09.flac
6:05.60 64527164 B --- -- ---xx gd82-08-06d1t10.flac
4:43.24 49977692 B --- -- ---xx gd82-08-06d1t11.flac
1:09.58 12308060 B --- -- ---xx gd82-08-06d2t01.flac
12:34.54 133132652 B --- -- ---xx gd82-08-06d2t02.flac
11:58.49 126770492 B --- -- ---xx gd82-08-06d2t03.flac
6:55.48 73318940 B --- -- ---xx gd82-08-06d2t04.flac
7:32.69 79895132 B --- -- ---xx gd82-08-06d2t05.flac
3:32.36 37481516 B --- -- ---xx gd82-08-06d2t06.flac
9:44.51 103137596 B --- -- ---xx gd82-08-06d2t07.flac
11:16.01 119248796 B --- -- ---xx gd82-08-06d3t01.flac
7:00.67 74245628 B --- -- ---xx gd82-08-06d3t02.flac
9:05.66 96293276 B --- -- ---xx gd82-08-06d3t03.flac
4:02.33 42766460 B --- -- ---xx gd82-08-06d3t04.flac
8:05.61 85697516 B --- -- ---xx gd82-08-06d3t05.flac
4:01.56 42644156 B --- -- ---xx gd82-08-06d3t06.flac
7:33.22 79960988 B --- -- ---xx gd82-08-06d3t07.flac
184:32.08 1953120716 B 0.6158 (25 files)
Checksumsgd82-08-06d1t01.flac:ba26fd3c44f90c9a98b09bf2275ef996
gd82-08-06d1t02.flac:01ede62519214aa4db580de2ad887546
gd82-08-06d1t03.flac:c808bd62d7728bc14843769211b146ce
gd82-08-06d1t04.flac:7e18695498efaf9e0da369485e0286db
gd82-08-06d1t05.flac:695c96cbd9b9d894ec0e6b79b524e500
gd82-08-06d1t06.flac:892b9298af15216954cc6726ee7c0e25
gd82-08-06d1t07.flac:87f716b4cc6afbe5f9b9a88a0d8b43c1
gd82-08-06d1t08.flac:5e5858976e1013633b7bac1aaa5fe298
gd82-08-06d1t09.flac:b0557c5fb1ba61ef93b44d891f12ddec
gd82-08-06d1t10.flac:410ecfd1712f312dc480b0980326b50f
gd82-08-06d1t11.flac:ee895ec0d0fdf3954f1d8ecca410ffc2
gd82-08-06d2t01.flac:459446996b4dfcd151ee90e32aecae81
gd82-08-06d2t02.flac:4c7c1974dd52d7b59cae5e831f67bf3a
gd82-08-06d2t03.flac:8ebbd0ab1c20dcb6661d653429f82148
gd82-08-06d2t04.flac:31ee70285d9d446c2c105611018952e6
gd82-08-06d2t05.flac:0841f59948621a523128edb5b8bfd74a
gd82-08-06d2t06.flac:98f55c32003eb5123a5352601fe1fff9
gd82-08-06d2t07.flac:cd235f82cb4c047fcedb9233ce4a33d8
gd82-08-06d3t01.flac:7a206d02f16d3233bea985e1ea8d5761
gd82-08-06d3t02.flac:3f285a5e5f5f59f5f86f5008932b106a
gd82-08-06d3t03.flac:4f4f027b02d8f3169249ed5916d2f2ec
gd82-08-06d3t04.flac:27759695390f23c05ab44e03213fbe6e
gd82-08-06d3t05.flac:f90fcb0a3dbe804e977be7ac47525376
gd82-08-06d3t06.flac:18d83d3eb2642f853f20a26d76d8ffff
gd82-08-06d3t07.flac:35e0209a7acb894e5a4675372cc50cc2
TypeGrateful Dead
Last seederLast activity 27:42 ago
Size1.126 GB (1208924435 Bytes)
Added2013-01-08 09:14:56
Views0
Hits351
Snatched202 times
Upped bygermain
Num files
[See full list]
34 files
Seeders
[Hide list]
1 Seeder(s)
ip:portclient
version
ul
bytes
dl
bytes
ratiocompleteul
rate
dl
rate
time
connected
time
left
idle
142.129.215.xxx:24874 0 B 0 B N/A 100.00%
N/A N/A 4 days, 21:57:39 N/A 4 days, 20:57:36
0 of 1 firewalled (0%) 100.00%
N/AN/A
Leechers
[Hide list]
0 Leecher(s)

Add a comment

wif2000 2013-09-29 12:27:17
question - after fire / before sailor, weir asks for scott anthony williams to go to an emergency desk - anyone know what this was all about? just curious since i have listened to this show for years - thanks in advance

Add a comment


http://etree.org : http://db.etree.org : http://forums.etree.org : http://wiki.etree.org : Legal : RSS Feed

Contents designed & maintained by the etree.org volunteers
1998-2014, etree.org, except where noted. All Rights Reserved.
Read our terms of service and privacy guidelines