bt.etree.org
etree.org Community Bittorrent Tracker
ArtistMedeski, Martin & Wood
ShowMMW.:-:. Boarding House Park- Lowell, MA 2007-08-18.akgc422.116471.flac16 *REQUESTED BY duggy & InsectEffect**DEEP DEEP FUNK and a near perfect tape
Report this as
non-Trade-Friendly
Email us
Torrentmmw2007-08-18.c422.116471.flac16.torrent (click to download)
Downloads asmmw2007-08-18.c422.116471.flac16
Info hash4376fd664938e8ac3a7feb00eb6c255265d7ccd4
db linkhttp://db.etree.org/shn/116471 | Show | Source
DescriptionMedeski, Martin, and Wood
August 18, 2007
Boarding House Park
Lowell, MA

SOURCE:
AKG C422(xy)~> s42~> Edirol R-4 (Oade T Mod) 24/96

RECORDING:
Jason Adler

TRANSFER:
Sound Forge 9.0- Channel Gain, Normalize, Resample, Dither
CDWAVE- Cut Tracks
TLH- SBE Check, SHNTOOL_len, FLAC lvl 6
Foobar2000- Live Show Tagger

TRANSFER/SEED:
Todd Turmel newplanet7

SET ONE:
01) Improv >
02) Improv >
03) Baby Goats
04) 1969
05) Tuttie Ma Is A Big Fine Thing
06) Pappy Check

SET TWO:
01) Fuck You Guys
02) Nostalgia In Times Square/Angel Race
03) Cat Creeps
04) Newplanet
05) Shackman
06) Back and Forth
07) ~CROWD~
08) E: Everyone Poops

length expanded size cdr WAVE problems fmt ratio filename
6:39.11 70409516 B --- -- ----- wav 1.0000 mmw2007-08-18s1t01.wav
10:21.43 109645580 B --- -- ----- wav 1.0000 mmw2007-08-18s1t02.wav
11:39.50 123421244 B --- -- ----- wav 1.0000 mmw2007-08-18s1t03.wav
9:40.61 102455516 B --- -- ----- wav 1.0000 mmw2007-08-18s1t04.wav
9:54.36 104866316 B --- -- ----- wav 1.0000 mmw2007-08-18s1t05.wav
7:22.06 77982956 B --- -- ----- wav 1.0000 mmw2007-08-18s1t06.wav
10:38.26 112604396 B --- -- ----- wav 1.0000 mmw2007-08-18s2t01.wav
13:32.21 143286236 B --- -- ----- wav 1.0000 mmw2007-08-18s2t02.wav
7:27.69 79013132 B --- -- ----- wav 1.0000 mmw2007-08-18s2t03.wav
7:55.25 83848844 B --- -- ----- wav 1.0000 mmw2007-08-18s2t04.wav
9:27.55 100148204 B --- -- ----- wav 1.0000 mmw2007-08-18s2t05.wav
15:14.41 161326076 B --- -- ----- wav 1.0000 mmw2007-08-18s2t06.wav
2:07.32 22478108 B --- -- ----- wav 1.0000 mmw2007-08-18s2t07.wav
5:59.04 63337052 B --- -- ----- wav 1.0000 mmw2007-08-18s2t08.wav
128:00.30 1354823176 B 1.0000 (14 files)
Checksumsmmw2007-08-18s1t01.flac:d9f547e4c00722af93c77342e21da78e<br />
mmw2007-08-18s1t02.flac:2a6ad9c2ef4ca810930cc7ef5da2f674<br />
mmw2007-08-18s1t03.flac:17a9ca9c1232bd928c9da5541670b39c<br />
mmw2007-08-18s1t04.flac:172a56caf6f2b0ebb47bb387a4988177<br />
mmw2007-08-18s1t05.flac:6b8e3d6de28636424f20d8bddb016bae<br />
mmw2007-08-18s1t06.flac:60120ae95344e1bcb80d7290c2ec1b49<br />
mmw2007-08-18s2t01.flac:bc58d1e4e2026ea438808be6b16b1cde<br />
mmw2007-08-18s2t02.flac:10e250f2013436b1bea7e52b2b585814<br />
mmw2007-08-18s2t03.flac:1e191b8769d8cd9236c48c1c4ecb89a1<br />
mmw2007-08-18s2t04.flac:f69c3e34de271a755c1f2d052f72f969<br />
mmw2007-08-18s2t05.flac:f8a47f298f84b06784c8e82e78b7bb48<br />
mmw2007-08-18s2t06.flac:338d192a35ec55f3ba6a3a03f9e15024<br />
mmw2007-08-18s2t07.flac:9f6b9272e15c9a5b4e4a2d1bce2c2308<br />
mmw2007-08-18s2t08.flac:166b5e46f645421792f544e6ec3ce060<br />
TypeMedeski, Martin & Wood
Last seederLast activity 10:53 ago
Size613.20 MB (642981690 Bytes)
Added2013-01-09 17:43:13
Views0
Hits601
Snatched359 times
Upped bynewplanet7
Num files
[See full list]
17 files
Seeders
[Hide list]
4 Seeder(s)
ip:portclient
version
ul
bytes
dl
bytes
ratiocompleteul
rate
dl
rate
time
connected
time
left
idle
107.3.161.xxx:51413 910.99 MB 0 B 100.00%
0 B/s N/A 40:53 N/A 10:53
109.214.106.xxx:21521 Mainline 7.7.0 0 B 0 B N/A 100.00%
N/A N/A 13:39:14 N/A 38:46
142.105.40.xxx:43034 μtorrent 3.0.0.0 0 B 0 B N/A 100.00%
N/A N/A 2 days, 07:57:26 N/A 25:36
68.184.20.xxx:14293 μtorrent 3.4.2.0 0 B 0 B N/A 100.00%
N/A N/A 2 days, 11:18:37 N/A 23:48
0 of 4 firewalled (0%) 100.00%
N/AN/A
Leechers
[Hide list]
0 Leecher(s)

Add a comment

<< Prev      Next >>
1 - 20 | 21 - 29

moniker 2013-01-10 19:34:36
Thanks benissimo and duggy for responding. I do remember that NYT article and was hoping there had been some follow up. After only a few more performances after 2007 it seems the song has fallen off the band's radar. I hope they get reminded of it at some point.
they_call_me_lemming_fu 2013-01-11 01:54:04
this is no plucking joke. you can hear how strong the vibe was throughout the venue. thanks so much! i've been shuffling to this all day.
kayatosh 2013-01-11 17:32:36
thank you. awesome improv.
geewiz010 2013-01-12 12:14:44
Thanks for this!
sugaree1117 2013-01-12 14:21:44
Amazing, have listened to it like 10 times already, this is why I love MMW !
kayatosh 2013-01-19 13:25:01
forced to double comment this seed. super slick MMW show. flows like a river. set II gets real nice. and recording is great.
kindmeow 2013-08-30 10:09:11
many thanks to you
varanasibull 2013-11-20 14:37:45
Hmmmm..., I like my F.U.N.K. veeeery DEEEP... Muchas for sharing this source. Cheers.
Pro_ject 2014-02-10 06:44:24
Thank you!

1 - 20 | 21 - 29
<< Prev      Next >>

Add a comment


http://etree.org : http://db.etree.org : http://forums.etree.org : http://wiki.etree.org : Legal : RSS Feed

Contents designed & maintained by the etree.org volunteers
1998-2014, etree.org, except where noted. All Rights Reserved.
Read our terms of service and privacy guidelines