bt.etree.org
etree.org Community Bittorrent Tracker
ArtistGrateful Dead
Showgd77-03-18.sbd.miller.123285.flac16
Report this as
non-Trade-Friendly
Email us
Torrentgd77-03-18.sbd.miller.123285.flac16.torrent (click to download)
Downloads asgd77-03-18.sbd.miller.123285.flac16
Info hash7e97d9cf5d272092c141ca6ede78df8e613f706e
db linkhttp://db.etree.org/shn/123285 | Show | Source
DescriptionGrateful Dead - March 18, 1977
Winterland Arena - San Francisco, CA

Recording Info:
SBD -> Master Reel -> Dat -> CD

Mastering Info:
CD -> Samplitude Professional v11.2.1 -> FLAC
(3 Discs Audio / 1 DVD FLAC)

All Transfers and Mastering By Charlie Miller
charliemiller87@earthlink.net
December 31, 2012

Patch Info:
Sony ECM-270 -> Master Cassette -> FLAC (24bit/96k) supplies:
Promised Land (complete track)
Fire On The Mountain (5:36 - 6:07)
Ship Of Fools (complete track)
Not Fade Away (14:15 - 15:03)

Notes:
-- Set 2 is seamless
-- This is a remaster of shnid=79098
-- Terrapin Station includes At A Siding
-- Numerous flaws were cleaned up
-- Thanks to Matt Smith for the patch source
-- Thanks to Joe B. Jones for his help pitch correcting the patch source

Set 1:
d1t01 - Promised Land
d1t02 - Mississippi Half-Step Uptown Toodeloo
d1t03 - It's All Over Now
d1t04 - Sugaree
d1t05 - New Minglewood Blues
d1t06 - Peggy-O
d1t07 - Cassidy
d1t08 - Scarlet Begonias ->
d1t09 - Fire On The Mountain

Set 2:
d2t01 - Samson And Delilah
d2t02 - Brown Eyed Women
d2t03 - Good Lovin'
d2t04 - Ship Of Fools
d2t05 - Estimated Prophet
d3t01 - Terrapin Station ->
d3t02 - Drums ->
d3t03 - Not Fade Away ->
d3t04 - Saint Stephen ->
d3t05 - Around And Around

Encore:
d3t06 - Uncle John's Band


SHNTOOL OUTPUT:
length expanded size cdr WAVE problems fmt ratio filename
5:30.63 58360220 B --- -- ---xx flac 0.5950 gd77-03-18d1t01.flac
12:18.59 130322012 B --- -- ---xx flac 0.5493 gd77-03-18d1t02.flac
6:57.05 73570604 B --- -- ---xx flac 0.5241 gd77-03-18d1t03.flac
14:47.68 156626780 B --- -- ---xx flac 0.5199 gd77-03-18d1t04.flac
5:09.10 54531164 B --- -- ---xx flac 0.5742 gd77-03-18d1t05.flac
10:04.40 106639724 B --- -- ---xx flac 0.4899 gd77-03-18d1t06.flac
5:30.14 58244972 B --- -- ---xx flac 0.5428 gd77-03-18d1t07.flac
6:42.56 71044556 B --- -- ---xx flac 0.5609 gd77-03-18d1t08.flac
11:06.34 117562412 B --- -- ---xx flac 0.5389 gd77-03-18d1t09.flac
7:20.62 77761868 B --- -- ---xx flac 0.5490 gd77-03-18d2t01.flac
5:37.45 59552684 B --- -- ---xx flac 0.5316 gd77-03-18d2t02.flac
4:37.48 48975740 B --- -- ---xx flac 0.5544 gd77-03-18d2t03.flac
7:58.02 84323948 B --- -- ---xx flac 0.5440 gd77-03-18d2t04.flac
8:26.20 89305484 B --- -- ---xx flac 0.5095 gd77-03-18d2t05.flac
14:52.12 157377068 B --- -- ---xx flac 0.5109 gd77-03-18d3t01.flac
2:59.34 31655612 B --- -- ---xx flac 0.4911 gd77-03-18d3t02.flac
20:02.48 212145740 B --- -- ---xx flac 0.5256 gd77-03-18d3t03.flac
4:27.73 47270540 B --- -- ---xx flac 0.5232 gd77-03-18d3t04.flac
8:41.43 92005580 B --- -- ---xx flac 0.5544 gd77-03-18d3t05.flac
8:51.36 93753116 B --- -- ---xx flac 0.5278 gd77-03-18d3t06.flac
172:03.22 1821029824 B 0.5328 (20 files)
Checksumsc066fe824f502de4677b11f181fd68aa *gd77-03-18d1t01.flac
a2d7676cab554e29afeeeee08f994ef9 *gd77-03-18d1t02.flac
a69dae3fdf21b31320f63c3b1627c044 *gd77-03-18d1t03.flac
a64650b2e590596355d693e1dd8a256d *gd77-03-18d1t04.flac
ae7ad9cf67fcccf2e9da2cf14b9f13cb *gd77-03-18d1t05.flac
30157040742434577bfdfc292a155672 *gd77-03-18d1t06.flac
f26de35109bb6d9f288fdd23c4980be2 *gd77-03-18d1t07.flac
2b8c2ef690d1d7e867a1b78e60fc35c1 *gd77-03-18d1t08.flac
f1c741d31724a5e61b98babc8d623a59 *gd77-03-18d1t09.flac
8c907217f7150256f3b2ddee97613f6e *gd77-03-18d2t01.flac
1a583f321add031cf0bff0da9b67708c *gd77-03-18d2t02.flac
12db43d2335665dadb93bdb948e9694a *gd77-03-18d2t03.flac
1cd23075d3a1df0ef61606b87322f7cc *gd77-03-18d2t04.flac
cf88174bbf01527aefd9ed91960b8c98 *gd77-03-18d2t05.flac
de2c44092864d9288ee2e830d6b90bce *gd77-03-18d3t01.flac
4b9899a1acf18562bb21bfc286eb92c8 *gd77-03-18d3t02.flac
ae454094c5bc78a6ae890e2c0e3c6c7b *gd77-03-18d3t03.flac
8e3bd7dc11e99bcd9f16274d47d504ef *gd77-03-18d3t04.flac
4b61986c13c443d34eafac610a2d2176 *gd77-03-18d3t05.flac
817f716558e4cf942228188aad2065f1 *gd77-03-18d3t06.flac


gd77-03-18d1t01.flac:cb8f442ba0fb0f59d8703906f3be59fb
gd77-03-18d1t02.flac:f0ff0e887ae896d434ddb7a1aa0d0a76
gd77-03-18d1t03.flac:88f59bc36f77917842cbc34bb11925c0
gd77-03-18d1t04.flac:42083bbdaa1e81a74603e4e826432d26
gd77-03-18d1t05.flac:caaa8409fadcd5a97519c68eb6873afb
gd77-03-18d1t06.flac:69f14e6754f7c0d61c5a064b94234054
gd77-03-18d1t07.flac:88d9406082db9a9d889d27df1b72fdce
gd77-03-18d1t08.flac:53ebac101ae93d78f42dbd8abf9c1983
gd77-03-18d1t09.flac:106a59b188f62635ea5cb5b20c06e0c4
gd77-03-18d2t01.flac:eeb51e73ab25e3332a75a4731cf6e2f9
gd77-03-18d2t02.flac:8c11c3813a1de17060955011529bcbfa
gd77-03-18d2t03.flac:5099ea3338cd5b7184aba16a63bc8e62
gd77-03-18d2t04.flac:224c6176ecfb7447f66c1ccc0c6873c5
gd77-03-18d2t05.flac:34ed552cc964708ead41afdab3a25a37
gd77-03-18d3t01.flac:44fa2a2a0f8110f5af38a38e7583b89e
gd77-03-18d3t02.flac:02b574a8c21c50f607aad9f8b663ab53
gd77-03-18d3t03.flac:08aa762de12cec93b5dc39d825ecf097
gd77-03-18d3t04.flac:e57c71e21129bb0f5549fa2d91c09f06
gd77-03-18d3t05.flac:89a14a5bd628219df3a21cb9d68e28ac
gd77-03-18d3t06.flac:ea61062b515e118ba67c7fa46335e501
TypeGrateful Dead
Last seederLast activity 16:26 ago
Size925.29 MB (970238213 Bytes)
Added2013-01-09 19:35:09
Views0
Hits1551
Snatched1112 times
Upped byenso
Num files23 files
File List
[Hide list]
filenamesizemd5
gd77-03-18.ffp1.1 kBN/A
gd77-03-18.md51.1 kBN/A
gd77-03-18.txt3.2 kBN/A
gd77-03-18d1t01.flac33.12 MBN/A
gd77-03-18d1t02.flac68.27 MBN/A
gd77-03-18d1t03.flac36.77 MBN/A
gd77-03-18d1t04.flac77.66 MBN/A
gd77-03-18d1t05.flac29.86 MBN/A
gd77-03-18d1t06.flac49.82 MBN/A
gd77-03-18d1t07.flac30.15 MBN/A
gd77-03-18d1t08.flac38.00 MBN/A
gd77-03-18d1t09.flac60.42 MBN/A
gd77-03-18d2t01.flac40.71 MBN/A
gd77-03-18d2t02.flac30.19 MBN/A
gd77-03-18d2t03.flac25.90 MBN/A
gd77-03-18d2t04.flac43.75 MBN/A
gd77-03-18d2t05.flac43.39 MBN/A
gd77-03-18d3t01.flac76.68 MBN/A
gd77-03-18d3t02.flac14.83 MBN/A
gd77-03-18d3t03.flac106.35 MBN/A
gd77-03-18d3t04.flac23.59 MBN/A
gd77-03-18d3t05.flac48.64 MBN/A
gd77-03-18d3t06.flac47.19 MBN/A
Peers
[See full list]
10 seeders, 3 leechers = 13 peers total

Add a comment

achipar 2013-01-09 20:35:30
20 min NFA from 77?--I gotta hear that
thanks
heckler 2013-01-09 21:09:50
I think this is the debut of Fire on the Mountain.
Pisces 2013-01-09 22:19:13
Thanks!
jek 2013-01-09 23:33:56
The 9/3/77 NFA also hit twenty minutes (released on DP 15)...you know, if these twenty minutes are just not enough for you. :)
ejb 2013-01-10 09:21:54
Thank you
wnjdawg 2013-01-10 20:23:55
The Alhambra!!!
cvdk1996 2013-01-12 07:23:44
Why is it every time I try and get away from late 70's shows, having thought I had heard them all....they keep pulling me back in?!?!?! Thanks Cosmic Charlie....this one is special!
jugrnot 2013-01-20 02:51:32
I'm getting numerous "skips" in Terrapin - is this a flaw in the master or is mine corrupt?
jugrnot 2013-01-20 02:58:23
Nevermind... I figured it out... Thanks for the awesome show!

Add a comment


http://etree.org : http://db.etree.org : http://forums.etree.org : http://wiki.etree.org : Legal : RSS Feed

Contents designed & maintained by the etree.org volunteers
1998-2014, etree.org, except where noted. All Rights Reserved.
Read our terms of service and privacy guidelines