bt.etree.org
etree.org Community Bittorrent Tracker
ArtistGarcia
Showjgb1989-12-02.mk4.set 2.miller.123333.flac16
Report this as
non-Trade-Friendly
Email us
Torrentjgb1989-12-02.mk4.set 2.miller.123333.flac16.torrent (click to download)
Downloads asjgb1989-12-02.mk4.set 2.miller.123333.flac16
Info hash4e853b3afae103cf813270b22c2864b5cb67fefb
db linkhttp://db.etree.org/shn/123333 | Show | Source
DescriptionJerry Garcia Band - December 2, 1989
Warfield Theatre - San Francisco, CA

Recording Info:
(FOB) Schoeps CMC3/MK4 -> Dat (48k)

Transfer Info:
Dat (Tascam DA-20) -> Sound Devices 744T -> Samplitude Professional v11.2.1 -> FLAC
(1 Disc Audio / 1 Disc FLAC)

All Transfers and Mastering By Charlie Miller
charliemiller87@earthlink.net
January 1, 2013

Notes:
-- I only have set 2
-- Complete show with Clarence Clemons on sax
-- Dat supplied by Bill Reutelhuber in 2003

Set 2:
s2t01 - Harder They Come
s2t02 - I Shall Be Released
s2t03 - Someday Baby
s2t04 - Waiting For A Miracle
s2t05 - And It Stoned Me
s2t06 - Don't Let Go
s2t07 - Midnight Moonlight


SHNTOOL OUTPUT:
length expanded size cdr WAVE problems fmt ratio filename
13:12.72 139878188 B --- -- ---xx flac 0.6060 jgb1989-12-02s2t01.flac
12:44.40 134863724 B --- -- ---xx flac 0.5749 jgb1989-12-02s2t02.flac
8:30.16 90001676 B --- -- ---xx flac 0.5669 jgb1989-12-02s2t03.flac
6:43.31 71162156 B --- -- ---xx flac 0.6016 jgb1989-12-02s2t04.flac
8:12.39 86880572 B --- -- ---xx flac 0.6020 jgb1989-12-02s2t05.flac
17:09.14 181548572 B --- -- ---xx flac 0.6178 jgb1989-12-02s2t06.flac
7:24.12 78349868 B --- -- ---xx flac 0.6424 jgb1989-12-02s2t07.flac
73:56.74 782684756 B 0.6017 (7 files)
Checksumsjgb1989-12-02s2t01.flac:38685fcc44a1bd47294bfb7b997daca6
jgb1989-12-02s2t02.flac:01450fe89b3e47df61c908b396a3661f
jgb1989-12-02s2t03.flac:2573701a447804fec8a0983ea3a130ac
jgb1989-12-02s2t04.flac:9b43dbabbcd83f738da1828486583958
jgb1989-12-02s2t05.flac:a39958b09088491c1fa05b3ddfc58593
jgb1989-12-02s2t06.flac:39690d66728178d9672c26a4bc5179c9
jgb1989-12-02s2t07.flac:5d2e51f161758b99c8d5ba1949dcbba7


cad8ee26e650f6db43dfe6c38a05d1e0 *jgb1989-12-02s2t01.flac
d106f42685c2ea787baff641c25997cc *jgb1989-12-02s2t02.flac
76c28875c91cbbd97ca6b72b3a656355 *jgb1989-12-02s2t03.flac
f5b1315efb0443280e4683eb71e3633d *jgb1989-12-02s2t04.flac
0f3d22495457ea93a5ae4b0cb2ee07ca *jgb1989-12-02s2t05.flac
46dcd6af8de1841ddb4f54af7dba0056 *jgb1989-12-02s2t06.flac
930327f1d57706adab178bfc20d1a8f5 *jgb1989-12-02s2t07.flac
TypeGarcia
Last seederLast activity 2 days, 21:12:51 ago
Size449.10 MB (470919159 Bytes)
Added2013-01-09 19:39:47
Views0
Hits756
Snatched388 times
Upped byenso
Num files
[See full list]
10 files
Seeders
[Hide list]
0 Seeder(s)
Leechers
[Hide list]
0 Leecher(s)

Add a comment

davidw987 2013-01-10 01:05:43
This was an amazing show. Jerry and Clarence were just jammin' it out together. They went over the deep end and back during Don't Let Go and high fived eachother at the end of the song.

Glad to see this set. There is a soundboard of both sets, but it isn't a very good recording. I'm optimistic that this one will capture the dynamics between Jerry and Clarence.
kayatosh 2013-01-10 18:51:48
thank you.
billtasty 2013-01-10 21:21:25
Always in for late 80's JGB & Schoeps. Was this a reutelhuber recording?
acurtis420 2013-01-11 22:22:54
Was this a reutelhuber recording?

Does not appear to be.
UncleWaldo 2013-01-16 00:51:27
Great sound on this. Thanks Charlie

Add a comment


http://etree.org : http://db.etree.org : http://forums.etree.org : http://wiki.etree.org : Legal : RSS Feed

Contents designed & maintained by the etree.org volunteers
1998-2014, etree.org, except where noted. All Rights Reserved.
Read our terms of service and privacy guidelines