bt.etree.org
etree.org Community Bittorrent Tracker
ArtistOther
ShowMedicine Man Jam Mari's Quincy, Massachusetts 1/10/2013 (Schoeps CCM4V'S FOB)
Report this as
non-Trade-Friendly
Email us
Torrentmedicine2013-01-10.flac16.torrent (click to download)
Downloads asmedicine2013-01-10.flac16
Info hashadbf88594b146ff863e23cadcc23b580d396f421
DescriptionMedicine Man Jam
Mari's Place
Quincy, Massachusetts
1/10/2013

Source: Schoeps CCM4V'S(din)>Lunatec V2>Benchmark AD2K>
Sound Devices 722 (24/48)
FOB/DFC/KFC/ZFC/AARP 8' From Stage, 6 1/2' High
DSP: Sound Devices 722>Sound Forge 9.0>CD Wave>flac(16)
Recorded By: Z-Man
Seeded By: Z-Man

Disc I 1st Set

01 Greeting
02 Let Me Love You Baby
03 Take Me Out To The Ballgame
04 Cheap Sunglasses
05 ?
06 *Stairway To Heaven
07 *Pride And Joy

Disc II 2nd Set

01 ?
02 #?Jeff Beck Song
03 #@Tore Down
04 Jam As We Change Out Musicians
05 ^+Evil Ways
06 ^+Superstitious

* With Baxter On Guitar (13 Year Old)
# With Seth Rosenbloom On Guitar
@ With Jack On Vocals
^ With Nick Mancini On Guitar
+ With Bill On Drums

Johnny Finn - Guitar And Vocals
Russ Costa - Guitar And Vocals
Ric Naistadt - Bass
Pablo - Percussion
Steve ? - Drums

Flac Fingerprint

medicine2013-01-10d01t01.flac:8f465e4422b660fcca9153388e16f36f
medicine2013-01-10d01t02.flac:ad619ff695181d55d75ebff9129a5b1b
medicine2013-01-10d01t03.flac:70d533563621d85977e8695d9118d879
medicine2013-01-10d01t04.flac:d7489d6f2bb0b47192c76b7756ea8310
medicine2013-01-10d01t05.flac:113d2fe3960eaee8b8827314cee7c2f5
medicine2013-01-10d01t06.flac:f66b84a1f44b112330888e7af118da9c
medicine2013-01-10d01t07.flac:86a7fbd7fcb60a9703eeaa4bec4e6f7d
medicine2013-01-10d02t01.flac:eb7d9abaee330444662a0535acee2a44
medicine2013-01-10d02t02.flac:4fd5b64f03dd155cfb41323a04b2d9bb
medicine2013-01-10d02t03.flac:e69e24d4ef60d8182f3b4dabb6caf8eb
medicine2013-01-10d02t04.flac:09c6a031b99ad6d790f12636318c81b3
medicine2013-01-10d02t05.flac:70c8f89f93f277ee70d8733d56c248ce
medicine2013-01-10d02t06.flac:74038b5057ebad70b5f738c26e07d988

Shntool

length expanded size cdr WAVE problems fmt ratio filename
0:14.21 2519036 B --- -- ---xx flac 0.2836 medicine2013-01-10d01t01.flac
8:49.48 93428540 B --- -- ---xx flac 0.4946 medicine2013-01-10d01t02.flac
0:50.06 8834156 B --- -- ---xx flac 0.4133 medicine2013-01-10d01t03.flac
6:36.72 70023788 B --- -- ---xx flac 0.4963 medicine2013-01-10d01t04.flac
9:38.09 101980412 B --- -- ---xx flac 0.4732 medicine2013-01-10d01t05.flac
9:52.28 104494700 B --- -- ---xx flac 0.4770 medicine2013-01-10d01t06.flac
6:43.31 71162156 B --- -- ---xx flac 0.4992 medicine2013-01-10d01t07.flac
6:26.25 68149244 B --- -- ---xx flac 0.4511 medicine2013-01-10d02t01.flac
12:11.30 129019004 B --- -- ---xx flac 0.5436 medicine2013-01-10d02t02.flac
4:01.60 42653564 B --- -- ---xx flac 0.4801 medicine2013-01-10d02t03.flac
1:27.42 15445628 B --- -- ---xx flac 0.3185 medicine2013-01-10d02t04.flac
6:39.62 70529468 B --- -- ---xx flac 0.5481 medicine2013-01-10d02t05.flac
7:13.59 76520012 B --- -- ---xx flac 0.5151 medicine2013-01-10d02t06.flac
80:45.43 854759708 B 0.4952 (13 files)



















Checksumsmedicine2013-01-10d01t01.flac:8f465e4422b660fcca9153388e16f36f<br />
medicine2013-01-10d01t02.flac:ad619ff695181d55d75ebff9129a5b1b<br />
medicine2013-01-10d01t03.flac:70d533563621d85977e8695d9118d879<br />
medicine2013-01-10d01t04.flac:d7489d6f2bb0b47192c76b7756ea8310<br />
medicine2013-01-10d01t05.flac:113d2fe3960eaee8b8827314cee7c2f5<br />
medicine2013-01-10d01t06.flac:f66b84a1f44b112330888e7af118da9c<br />
medicine2013-01-10d01t07.flac:86a7fbd7fcb60a9703eeaa4bec4e6f7d<br />
medicine2013-01-10d02t01.flac:eb7d9abaee330444662a0535acee2a44<br />
medicine2013-01-10d02t02.flac:4fd5b64f03dd155cfb41323a04b2d9bb<br />
medicine2013-01-10d02t03.flac:e69e24d4ef60d8182f3b4dabb6caf8eb<br />
medicine2013-01-10d02t04.flac:09c6a031b99ad6d790f12636318c81b3<br />
medicine2013-01-10d02t05.flac:70c8f89f93f277ee70d8733d56c248ce<br />
medicine2013-01-10d02t06.flac:74038b5057ebad70b5f738c26e07d988
TypeOther
Last seederLast activity 169 days, 10:16:09 ago
Size403.70 MB (423309817 Bytes)
Added2013-01-11 01:55:30
Views0
Hits148
Snatched17 times
Upped byzmanatl
Num files
[See full list]
14 files
Peers
[See full list]
1 seeder, 0 leechers = 1 peer total

Add a comment

bigdaddybflo 2013-01-11 09:44:08
Your knee must feel better... GO Z GO !!

Add a comment


http://etree.org : http://db.etree.org : http://forums.etree.org : http://wiki.etree.org : Legal : RSS Feed

Contents designed & maintained by the etree.org volunteers
1998-2014, etree.org, except where noted. All Rights Reserved.
Read our terms of service and privacy guidelines