bt.etree.org
etree.org Community Bittorrent Tracker
ArtistGrateful Dead
Showgd82-08-10.102902.mtx.seamons.ht01.t-flac16
Report this as
non-Trade-Friendly
Email us
Torrentgd82-08-10.102902.mtx.seamons.ht01.t-flac16.torrent (click to download)
Downloads asgd82-08-10.102902.mtx.seamons.ht01.t-flac16
Info hash99527522f51c15cdb867372eba85f765d344ff04
db linkhttp://db.etree.org/shn/102902 | Show | Source
DescriptionThis is a tagged version of shnid: 102902

Grateful Dead
University Of Iowa Fieldhouse
Iowa City, IA
August 10, 1982


*Matrix*
-------------------------------------------

SBD (shnid=102577):

Recording Info:
SBD -> Cassette Master -> Dat

Transfer Info:
Dat (Sony R500) -> Samplitude Professional v10.22 ->
Adobe Audition v1.5 -> FLAC
(3 Discs Audio / 2 Discs FLAC)

All Transfers and Mastering By Charlie Miller
charliemiller87@earthlink.net
November 14, 2009

[Cuts:]
Eyes Of The World (10:04 - 10:45)
Space (0:29 - 0:38)
Stella Blue (0:00 - 0:10)

Notes:
-- Set 2 is seamless
-- Thanks to Joe B. Jones for his help with the pitch correction
-------------------------------------------

AUD (shnid=82875):

AKG CE-1 (4th row) > UHER CR-240 > Playback on Nak Dragon >
Sony R700 DAT deck (sbm-on) - used only as A>D converter (44.1khz) >
ZA2 > CDR (x2) > EAC > FLAC (tracking with CDWAV)
Taped by Kenny Mance. EAC to FLAC by cbass 2/25/07

[Tape flip in Drums; poor AUD patch in Sugar Mags removed for matrix.]

-------------------------------------------
Thank you to Charlie Miller for the SBD transfer,
to Kenny Mance for recording the show,
and to Charles Bass for the AUD transfer.

Matrix by Hunter Seamons using Final Cut Pro
(FLAC>AIFF>Final Cut>WAV>FLAC)
November 28, 2009
_______________________________________________________________________

--Set 1--
101-d1t01 - Feel Like A Stranger
102-d1t02 - Friend Of The Devil
103-d1t03 - New Minglewood Blues
104-d1t04 - Tennessee Jed
105-d1t05 - Cassidy
106-d1t06 - It Must Have Been the Roses
107-d1t07 - Technical Difficulties
108-d1t08 - On The Road Again ->
109-d1t09 - Beat It on Down the Line
110-d1t10 - Stagger Lee
111-d2t01 - I Need a Miracle ->
112-d2t02 - Bertha

--Set 2--
201-d2t03 - China Cat Sunflower ->
202-d2t04 - I Know You Rider
203-d2t05 - Lost Sailor ->
204-d2t06 - Saint Of Circumstance ->
205-d2t07 - Eyes of the World ->
206-d2t08 - Drums ->
207-d3t01 - Space ->
208-d3t02 - Iko Iko ->
209-d3t03 - Truckin' ->
210-d3t04 - Stella Blue ->
211-d3t05 - Sugar Magnolia

--Encore--
212-d3t06 - It's All Over Now, Baby Blue ->
213-d3t07 - Johnny B. Goode
_______________________________________________________________________

Tagging notes:
Show information is embedded within the header of each flac file.
It will display on any player capable of directly playing flac
files. If converted to wav during processing, all tags will be
stripped, however audio data will remain unaffected. If you must
transcode to a lossy format, do so directly Flac > Lossy.
Use ffp to validate audio integrity.
Md5 values will change if tagging is altered.
B. Proctor 10-31-10
_______________________________________________________________________


length expanded size cdr WAVE problems fmt ratio filename
10:16.23 108716540 B --- -- ---xx gd82-08-10d1t01.flac
8:22.38 88642220 B --- -- ---xx gd82-08-10d1t02.flac
7:48.58 82691660 B --- -- ---xx gd82-08-10d1t03.flac
9:52.54 104555852 B --- -- ---xx gd82-08-10d1t04.flac
7:36.54 80565452 B --- -- ---xx gd82-08-10d1t05.flac
5:26.50 57624044 B --- -- ---xx gd82-08-10d1t06.flac
5:38.08 59642060 B --- -- ---xx gd82-08-10d1t07.flac
2:57.55 31352204 B --- -- ---xx gd82-08-10d1t08.flac
5:08.51 54451196 B --- -- ---xx gd82-08-10d1t09.flac
7:34.42 80184428 B --- -- ---xx gd82-08-10d1t10.flac
3:45.42 39788828 B --- -- ---xx gd82-08-10d2t01.flac
6:46.55 71747804 B --- -- ---xx gd82-08-10d2t02.flac
7:24.41 78418076 B --- -- ---xx gd82-08-10d2t03.flac
8:29.08 89806460 B --- -- ---xx gd82-08-10d2t04.flac
6:36.57 69988508 B --- -- ---xx gd82-08-10d2t05.flac
6:55.72 73375388 B --- -- ---xx gd82-08-10d2t06.flac
13:03.06 138135356 B --- -- ---xx gd82-08-10d2t07.flac
7:50.30 82978604 B --- -- ---xx gd82-08-10d2t08.flac
8:50.57 93626108 B --- -- ---xx gd82-08-10d3t01.flac
9:35.29 101498252 B --- -- ---xx gd82-08-10d3t02.flac
6:43.22 71140988 B --- -- ---xx gd82-08-10d3t03.flac
8:30.04 89973452 B --- -- ---xx gd82-08-10d3t04.flac
11:52.28 125662700 B --- -- ---xx gd82-08-10d3t05.flac
6:45.73 71613740 B --- -- ---xx gd82-08-10d3t06.flac
4:19.13 45718220 B --- -- ---xx gd82-08-10d3t07.flac
188:11.70 1991898140 B 0.6041 (25 files)
Checksumsgd82-08-10d1t01.flac:ca5365b67a9cbde4e184cedcfc235bb1
gd82-08-10d1t02.flac:3c617151b47dfe4c75c0cc376764ef00
gd82-08-10d1t03.flac:2a5f1c8548aacfd4da5e2c96b576c761
gd82-08-10d1t04.flac:af9518d2ec775b9a30b25ea053794d30
gd82-08-10d1t05.flac:25560032b1dd0e9d4585893ec8f2b628
gd82-08-10d1t06.flac:9535f8886afbf464c14f9839a07f2d46
gd82-08-10d1t07.flac:c9a12ed92dc544b406f7bfe5d7996762
gd82-08-10d1t08.flac:491380854495e931cd44cc89695a5d16
gd82-08-10d1t09.flac:1c649a42e78d1e88a8be6a030b8e8584
gd82-08-10d1t10.flac:4b59425dfcbe44831701eb9ddc43b3df
gd82-08-10d2t01.flac:53779ec33bdddefd5dc4ac79fe7b5b2f
gd82-08-10d2t02.flac:79ef9fd8078ede9fd14e16b3740a5929
gd82-08-10d2t03.flac:f39a093e8d5b8aa7fa0162db599bdef4
gd82-08-10d2t04.flac:5d9926125729f71caefa9beb8f283581
gd82-08-10d2t05.flac:fb8bbf5f18d7b7098616581fe2f29ef3
gd82-08-10d2t06.flac:f6cd927e649fe2de93142768d75b6789
gd82-08-10d2t07.flac:dbfc33fe13ab6f6b88bb69a45dde7810
gd82-08-10d2t08.flac:3c0ac0a564386ff4d84e59d6a544dac8
gd82-08-10d3t01.flac:f35174c8d373a49e4c05068b53ae1d4a
gd82-08-10d3t02.flac:d7007dc4773e4584b277a39a3cc9e964
gd82-08-10d3t03.flac:c0ef9f0288ea0c5c28117a39bcb2f32b
gd82-08-10d3t04.flac:0ccfd8afe6cb824e04a3537c3e12e8bf
gd82-08-10d3t05.flac:608772dbb3246436ad97f5faff9d86c3
gd82-08-10d3t06.flac:17ae6dae5283c43f41bc216438cd7fcc
gd82-08-10d3t07.flac:fca6779ab17a775a39e37e849badb90c
TypeGrateful Dead
Last seederLast activity 11:19 ago
Size1.124 GB (1207269401 Bytes)
Added2013-01-12 11:18:27
Views1
Hits385
Snatched232 times
Upped bySpiralLightofVenus
Num files36 files
File List
[Hide list]
filenamesizemd5
gd82-08-10-Field-House.jpg126.2 kBN/A
gd82-08-10-Univ-Iowa.jpg167.1 kBN/A
gd82-08-10.102902.mtx.seamons.ht01.t-flac16/82-08-10- U. of Iowa Fieldhouse..jpg107.2 kBN/A
gd82-08-10.102902.mtx.seamons.ht01.t-flac16/gd1982-08-10.txt4.7 kBN/A
gd82-08-10.102902.mtx.seamons.ht01.t-flac16/gd82-08-10.102902.ffp1.3 kBN/A
gd82-08-10.102902.mtx.seamons.ht01.t-flac16/gd82-08-10.102902.tagged.md51.5 kBN/A
gd82-08-10.102902.mtx.seamons.ht01.t-flac16/gd82-08-10d1t01.flac61.41 MBN/A
gd82-08-10.102902.mtx.seamons.ht01.t-flac16/gd82-08-10d1t02.flac53.24 MBN/A
gd82-08-10.102902.mtx.seamons.ht01.t-flac16/gd82-08-10d1t03.flac49.75 MBN/A
gd82-08-10.102902.mtx.seamons.ht01.t-flac16/gd82-08-10d1t04.flac61.37 MBN/A
gd82-08-10.102902.mtx.seamons.ht01.t-flac16/gd82-08-10d1t05.flac46.94 MBN/A
gd82-08-10.102902.mtx.seamons.ht01.t-flac16/gd82-08-10d1t06.flac33.71 MBN/A
gd82-08-10.102902.mtx.seamons.ht01.t-flac16/gd82-08-10d1t07.flac28.31 MBN/A
gd82-08-10.102902.mtx.seamons.ht01.t-flac16/gd82-08-10d1t08.flac19.32 MBN/A
gd82-08-10.102902.mtx.seamons.ht01.t-flac16/gd82-08-10d1t09.flac30.02 MBN/A
gd82-08-10.102902.mtx.seamons.ht01.t-flac16/gd82-08-10d1t10.flac45.95 MBN/A
gd82-08-10.102902.mtx.seamons.ht01.t-flac16/gd82-08-10d2t01.flac24.72 MBN/A
gd82-08-10.102902.mtx.seamons.ht01.t-flac16/gd82-08-10d2t02.flac43.91 MBN/A
gd82-08-10.102902.mtx.seamons.ht01.t-flac16/gd82-08-10d2t03.flac46.85 MBN/A
gd82-08-10.102902.mtx.seamons.ht01.t-flac16/gd82-08-10d2t04.flac48.60 MBN/A
gd82-08-10.102902.mtx.seamons.ht01.t-flac16/gd82-08-10d2t05.flac37.99 MBN/A
gd82-08-10.102902.mtx.seamons.ht01.t-flac16/gd82-08-10d2t06.flac43.36 MBN/A
gd82-08-10.102902.mtx.seamons.ht01.t-flac16/gd82-08-10d2t07.flac85.08 MBN/A
gd82-08-10.102902.mtx.seamons.ht01.t-flac16/gd82-08-10d2t08.flac42.93 MBN/A
gd82-08-10.102902.mtx.seamons.ht01.t-flac16/gd82-08-10d3t01.flac43.92 MBN/A
gd82-08-10.102902.mtx.seamons.ht01.t-flac16/gd82-08-10d3t02.flac62.76 MBN/A
gd82-08-10.102902.mtx.seamons.ht01.t-flac16/gd82-08-10d3t03.flac43.72 MBN/A
gd82-08-10.102902.mtx.seamons.ht01.t-flac16/gd82-08-10d3t04.flac48.70 MBN/A
gd82-08-10.102902.mtx.seamons.ht01.t-flac16/gd82-08-10d3t05.flac75.23 MBN/A
gd82-08-10.102902.mtx.seamons.ht01.t-flac16/gd82-08-10d3t06.flac41.90 MBN/A
gd82-08-10.102902.mtx.seamons.ht01.t-flac16/gd82-08-10d3t07.flac27.87 MBN/A
gd82-08-10.102902.mtx.seamons.ht01.t-flac16/Vol01_gd820810_back.jpg752.0 kBN/A
gd82-08-10.102902.mtx.seamons.ht01.t-flac16/Vol01_gd820810_bookletcontents.jpg382.8 kBN/A
gd82-08-10.102902.mtx.seamons.ht01.t-flac16/Vol01_gd820810_bookletcover.jpg1.04 MBN/A
gd82-08-10.102902.mtx.seamons.ht01.t-flac16/Vol01_gd820810_front1.jpg553.2 kBN/A
gd82-08-10.102902.mtx.seamons.ht01.t-flac16/Vol01_gd820810_front2.jpg682.6 kBN/A
Peers
[See full list]
1 seeder, 0 leechers = 1 peer total

No comments yet

Add a comment


http://etree.org : http://db.etree.org : http://forums.etree.org : http://wiki.etree.org : Legal : RSS Feed

Contents designed & maintained by the etree.org volunteers
1998-2014, etree.org, except where noted. All Rights Reserved.
Read our terms of service and privacy guidelines