bt.etree.org
etree.org Community Bittorrent Tracker
ArtistGrateful Dead
Showgd82-08-10.102577.sbd.miller.t-flac16
Report this as
non-Trade-Friendly
Email us
Torrentgd82-08-10.102577.sbd.miller.t-flac16.torrent (click to download)
Downloads asgd82-08-10.102577.sbd.miller.t-flac16
Info hash119cc6db630a519a853a7eb7463b4b62e1e3cfc4
db linkhttp://db.etree.org/shn/102577 | Show | Source
DescriptionThis is a tagged version of shnid: 102577

Grateful Dead
August 10, 1982
U Of Iowa Fieldhouse
Iowa City, IA

Recording Info:
SBD -> Cassette Master -> Dat

Transfer Info:
Dat (Sony R500) -> Samplitude Professional v10.22 ->
Adobe Audition v1.5 -> FLAC
(3 Discs Audio / 2 Discs FLAC)

All Transfers and Mastering By Charlie Miller
charliemiller87@earthlink.net
November 14, 2009

Patch Info:
(FOB/4th Row) AKG CE-1 -> Cassette Master -> CD (shnid=82875) supplies:
Eyes Of The World (10:04 - 10:45)
Space (0:29 - 0:38)
Stella Blue (0:00 - 0:10)

Notes:
-- Set 2 is seamless
-- Thanks to Joe B. Jones for his help with the pitch correction
_________________________________________________________________________

--Set 1--
101-d1t01 - Feel Like a Stranger
102-d1t02 - Friend of the Devil
103-d1t03 - New Minglewood Blues
104-d1t04 - Tennessee Jed
105-d1t05 - Cassidy
106-d1t06 - It Must Have Been the Roses
107-d1t07 - P.A. Difficulties
108-d1t08 - On The Road Again ->
109-d1t09 - Beat It on Down the Line
110-d1t10 - Stagger Lee
111-d1t11 - I Need a Miracle ->
112-d1t12 - Bertha

--Set 2--
201-d2t01 - China Cat Sunflower ->
202-d2t02 - I Know You Rider
203-d2t03 - Lost Sailor ->
204-d2t04 - Saint of Circumstance ->
205-d2t05 - Eyes of The World ->
206-d2t06 - Drums ->
207-d2t07 - Space ->
208-d3t01 - Iko Iko ->
209-d3t02 - Truckin' ->
210-d3t03 - Stella Blue ->
211-d3t04 - Sugar Magnolia

--Encore--
212-d3t05 - It's All Over Now, Baby Blue ->
213-d3t06 - Johnny B. Goode
_________________________________________________________________________

Tagging notes:
Show information is embedded within the header of each flac file.
It will display on any player capable of directly playing flac
files. If converted to wav during processing, all tags will be
stripped, however audio data will remain unaffected. If you must
transcode to a lossy format, do so directly Flac > Lossy.
Use ffp to validate audio integrity.
Md5 values will change if tagging is altered.
B. Proctor 10-31-10
_________________________________________________________________________

SHNTOOL OUTPUT:
length expanded size cdr WAVE problems filename
9:09.33 96921260 --- -- ----- gd82-08-10d1t01.wav
8:19.35 88105964 --- -- ----- gd82-08-10d1t02.wav
7:21.37 77879468 --- -- ----- gd82-08-10d1t03.wav
8:46.11 92812316 --- -- ----- gd82-08-10d1t04.wav
6:38.07 70223708 --- -- ----- gd82-08-10d1t05.wav
5:26.51 57626396 --- -- ----- gd82-08-10d1t06.wav
5:38.08 59642060 --- -- ----- gd82-08-10d1t07.wav
2:57.56 31354556 --- -- ----- gd82-08-10d1t08.wav
3:39.12 38659868 --- -- ----- gd82-08-10d1t09.wav
6:37.01 70033196 --- -- ----- gd82-08-10d1t10.wav
3:45.42 39788828 --- -- ----- gd82-08-10d1t11.wav
6:05.32 64461308 --- -- ----- gd82-08-10d1t12.wav
7:33.31 79982156 --- -- ----- gd82-08-10d2t01.wav
5:50.65 61892924 --- -- ----- gd82-08-10d2t02.wav
6:36.61 69997916 --- -- ----- gd82-08-10d2t03.wav
6:55.73 73377740 --- -- ----- gd82-08-10d2t04.wav
13:02.66 138100076 --- -- ----- gd82-08-10d2t05.wav
7:50.37 82995068 --- -- ----- gd82-08-10d2t06.wav
8:50.57 93626108 --- -- ----- gd82-08-10d2t07.wav
9:35.23 101484140 --- -- ----- gd82-08-10d3t01.wav
6:38.15 70242524 --- -- ----- gd82-08-10d3t02.wav
8:35.08 90864860 --- -- ----- gd82-08-10d3t03.wav
11:11.48 118477340 --- -- ----- gd82-08-10d3t04.wav
6:46.02 71623148 --- -- ----- gd82-08-10d3t05.wav
4:07.28 43636700 --- -- ----- gd82-08-10d3t06.wav
177:59.14 1883809628 B (totals for 25 files)
Checksumsgd82-08-10d1t01.flac:629bb9b0f2272cbc15368b1c727d4089
gd82-08-10d1t02.flac:964d02b5570d6d7ebc7822b66142f73e
gd82-08-10d1t03.flac:f139716083ae60e0ec034dca1f813aa2
gd82-08-10d1t04.flac:be4fdf6fba47f69cc411fd98e4adcb20
gd82-08-10d1t05.flac:c719fd62df200362be9d1932e01a3ab8
gd82-08-10d1t06.flac:0598c4888864af742fa941750f700329
gd82-08-10d1t07.flac:8e73dd286b0214075a34cf7e503e04f3
gd82-08-10d1t08.flac:b2b92ea271e3c1b1c7ccee0ed7509cc2
gd82-08-10d1t09.flac:44fa20074fd5ad42b29897ad26df5355
gd82-08-10d1t10.flac:be503acacd0653f4fc6d3dc7f1d74a7f
gd82-08-10d1t11.flac:a60c2312d5adf169b130030e68b38275
gd82-08-10d1t12.flac:3509cefb5125739f6d5588b81ccdfa48
gd82-08-10d2t01.flac:ea9e7c2b7504a3b9a8ddb6b83c2428fa
gd82-08-10d2t02.flac:92aa8483e44efdebafa6eeaf7d011666
gd82-08-10d2t03.flac:09b23f442c76c4c3b43c14ff8bc5a761
gd82-08-10d2t04.flac:951a7a7b019326d38990348d4bb902dd
gd82-08-10d2t05.flac:ce6a3775233b1350b957f1d14483aa53
gd82-08-10d2t06.flac:433b52a3a33bb7a51c0aa37f158fd255
gd82-08-10d2t07.flac:c8721ad64bcbe2937dd09d77680dff2d
gd82-08-10d3t01.flac:bb12f9a64550da21c261b6c2fcaaa672
gd82-08-10d3t02.flac:6fce73469c76fe381ad984c9f4381789
gd82-08-10d3t03.flac:65d5f68183f03f7339516f4af1aff1ef
gd82-08-10d3t04.flac:e42fb282dafaba2e7509c83997ec2eba
gd82-08-10d3t05.flac:d7590d61a8ed16c278f6d3dfdfad9c7a
gd82-08-10d3t06.flac:6cb5ca66eefff7b37171151cc1657a98
TypeGrateful Dead
Last seederLast activity 26:07 ago
Size1.133 GB (1216859183 Bytes)
Added2013-01-12 11:18:34
Views4
Hits564
Snatched367 times
Upped bySpiralLightofVenus
Num files
[See full list]
30 files
Seeders
[Hide list]
3 Seeder(s)
ip:portclient
version
ul
bytes
dl
bytes
ratiocompleteul
rate
dl
rate
time
connected
time
left
idle
162.197.121.xxx:6881 0 B 0 B N/A 100.00%
N/A N/A 1 day, 21:37:08 N/A 34:50
97.96.101.xxx:63366 μtorrent 3.3.0.0 0 B 0 B N/A 100.00%
N/A N/A 1 day, 17:27:28 N/A 26:07
71.118.133.xxx:44211 μtorrent 3.4.2.0 0 B 0 B N/A 100.00%
N/A N/A 7:44:35 N/A 14:21
0 of 3 firewalled (0%) 100.00%
N/AN/A
Leechers
[Hide list]
0 Leecher(s)

Add a comment

bigmoe53221 2013-01-12 11:30:56
Wonderful night in Iowa City. I had gotten out of the hospital in Des Moines 2 days earlier and I was supposed to take it easy for a week or so. But we went. At the end Phil makes a comment about building a better place for them to play. The fieldhouse was the scene of many great Grateful Dead shows. My first show 3/20/71. 2/24/73. In those days we had shows at the fieldhouse all the time. Many great shows and great times were had there. GO HAWKS!!
iarooster 2013-01-12 12:56:51
But for heaven's sake, don't let the administration hear you call it "The Duane Allman Memorial Fieldhouse."
Hal R 2013-01-12 13:29:24
I was in the 3rd row. Saw many other great shows at the Duane Allman Memorial Fieldhouse. Amongst the best were Zappa and Jackson Browne. Seems like a dream, how the city and campus have changed.
jerome70 2013-01-12 15:43:48
Beer Barrel Polka before on the road again....thanx!
balto7 2013-01-13 10:07:14
Thanks a lot! I love this show.

Add a comment


http://etree.org : http://db.etree.org : http://forums.etree.org : http://wiki.etree.org : Legal : RSS Feed

Contents designed & maintained by the etree.org volunteers
1998-2014, etree.org, except where noted. All Rights Reserved.
Read our terms of service and privacy guidelines