bt.etree.org
etree.org Community Bittorrent Tracker
ArtistGrateful Dead
Showgd82-08-10.082875.fob-akg-ce1.mance-cbass.sbeok.t-flac16
Report this as
non-Trade-Friendly
Email us
Torrentgd82-08-10.082875.fob-akg-ce1.mance-cbass.sbeok.t-flac16.torrent (click to download)
Downloads asgd82-08-10.082875.fob-akg-ce1.mance-cbass.sbeok.t-flac16
Info hash3c625dd9829b2095bcc4b9d8d2803fb82f6abd74
db linkhttp://db.etree.org/shn/082875 | Show | Source
DescriptionThis is a tagged version of shnid: 82875

Grateful Dead
August 10, 1982
University Of Iowa Fieldhouse
Iowa City, IA

AKG CE-1 (4th row) > UHER CR-240 > Playback on Nak Dragon >
Sony R700 DAT deck (sbm-on) - used only as A>D converter
(44.1khz) > ZA2 > CDR (x2) > EAC > FLAC (tracking with CDWAV)
Taped by Kenny Mance.
EAC to FLAC by cbass 2/25/07
_______________________________________________________________________

--SET 1--
101-d1t01 - Crowd/Tuning
102-d1t02 - Feel Like a Stranger
103-d1t03 - Friend of the Devil
104-d1t04 - New Minlewood Blues
105-d1t05 - Tennessee Jed
106-d1t06 - Cassidy
107-d1t07 - It Must Have Been the Roses
108-d1t08 - Crowd/Tuning/Technical Difficulties/Noodling
109-d1t09 - On the Road Again ->
110-d1t10 - Beat It on Down the Line
111-d1t11 - Stagger Lee
112-d2t01 - Crowd/Tuning
113-d2t02 - I Need a Miracle ->
114-d2t03 - Bertha

--SET 2--
201-d2t04 - China Cat Sunflower ->
202-d2t05 - I Know You Rider
203-d2t06 - Crowd/Tuning
204-d2t07 - Lost Sailor ->
205-d2t08 - Saint of Circumstance ->
206-d2t09 - Eyes of the World ->
207-d2t10 - Drums ->
208-d3t01 - Drums (cont'd) ->
209-d3t02 - Space ->
210-d3t03 - Iko Iko ->
211-d3t04 - Truckin' ->
213-d3t05 - Stella Blue ->
214-d3t06 - Sugar Magnolia

--Encore--
215-d3t07 - It's All Over Now, Baby Blue ->
216-d3t08 - Johnny B. Goode
_______________________________________________________________________

Tagging notes:
Show information is embedded within the header of each flac file.
It will display on any player capable of directly playing flac
files. If converted to wav during processing, all tags will be
stripped, however audio data will remain unaffected. If you must
transcode to a lossy format, do so directly Flac > Lossy.
Use ffp to validate audio integrity.
Md5 values will change if tagging is altered.
B. Proctor 10-31-10
_______________________________________________________________________

length expanded size cdr WAVE problems filename
0:26.67 4744028 --- -- ---xx gd1982-08-10d1t01.flac
9:43.55 102970604 --- -- ---xx gd1982-08-10d1t02.flac
8:25.07 89098508 --- -- ---xx gd1982-08-10d1t03.flac
7:42.30 81567404 --- -- ---xx gd1982-08-10d1t04.flac
9:49.65 104052524 --- -- ---xx gd1982-08-10d1t05.flac
7:28.10 79050764 --- -- ---xx gd1982-08-10d1t06.flac
5:34.70 59082284 --- -- ---xx gd1982-08-10d1t07.flac
5:39.02 59804348 --- -- ---xx gd1982-08-10d1t08.flac
2:56.59 31185212 --- -- ---xx gd1982-08-10d1t09.flac
5:06.53 54103100 --- -- ---xx gd1982-08-10d1t10.flac
6:16.72 66495788 --- -- ---xx gd1982-08-10d1t11.flac
1:19.11 13961516 --- -- ---xx gd1982-08-10d2t01.flac
3:44.60 39654764 --- -- ---xx gd1982-08-10d2t02.flac
7:01.14 74297372 --- -- ---xx gd1982-08-10d2t03.flac
7:28.05 79039004 --- -- ---xx gd1982-08-10d2t04.flac
5:28.72 58028588 --- -- ---xx gd1982-08-10d2t05.flac
2:38.50 27988844 --- -- ---xx gd1982-08-10d2t06.flac
6:33.66 69480476 --- -- ---xx gd1982-08-10d2t07.flac
6:54.13 73060220 --- -- ---xx gd1982-08-10d2t08.flac
12:58.44 137342732 --- -- ---xx gd1982-08-10d2t09.flac
1:30.02 15880748 --- -- ---xx gd1982-08-10d2t10.flac
5:59.46 63435836 --- -- ---xx gd1982-08-10d3t01.flac
8:44.00 92433644 --- -- ---xx gd1982-08-10d3t02.flac
9:37.24 101839292 --- -- ---xx gd1982-08-10d3t03.flac
6:32.53 69273500 --- -- ---xx gd1982-08-10d3t04.flac
8:37.18 91241180 --- -- ---xx gd1982-08-10d3t05.flac
11:51.74 125594492 --- -- ---xx gd1982-08-10d3t06.flac
6:43.43 71190380 --- -- ---xx gd1982-08-10d3t07.flac
4:18.10 45534764 --- -- ---xx gd1982-08-10d3t08.flac
187:12.45 1981431916 B (totals for 29 files, 0.5855 overall compression ratio)
Checksums; flac fingerprint file generated by Trader's Little Helper
; generated on February 25, 2007, at 8:06 pm

gd1982-08-10d1t01.flac:8e2bd084cc470d5508407aaf25de3147
gd1982-08-10d1t02.flac:4d878c8f19a97866022c85bdd8c82056
gd1982-08-10d1t03.flac:0f74ded4375891e2b8985b445b7409b0
gd1982-08-10d1t04.flac:f6e9586b8252f5c5de8592cb0d078baf
gd1982-08-10d1t05.flac:40e2639a08cc4d2a5af4b26ac06d01c6
gd1982-08-10d1t06.flac:a04f0d219eaf491d6796f53e17d8a81a
gd1982-08-10d1t07.flac:0f4d199053778aa24dbfd62b9d466edf
gd1982-08-10d1t08.flac:29dc7a33c5519f3c54879d889bdc4105
gd1982-08-10d1t09.flac:e0f1245afdbed07201573b2f42732f02
gd1982-08-10d1t10.flac:d093f4a4afeebb25b526bfa86882351c
gd1982-08-10d1t11.flac:066b36c0ffff12724269490db3c6f0bb
gd1982-08-10d2t01.flac:f2b1ea8ae67e29d6cbfe4e0865c4c18e
gd1982-08-10d2t02.flac:897a75c9674a52d9a88afeec1455a300
gd1982-08-10d2t03.flac:d41e719a929cfb24b10273048f36013d
gd1982-08-10d2t04.flac:80ef0222653f6f0a4296a8c3fefce2cd
gd1982-08-10d2t05.flac:f0bf754fb2a3aa4d0f627c7df91b1d4a
gd1982-08-10d2t06.flac:5c8b9b759e9725a947cb823962854999
gd1982-08-10d2t07.flac:47781f1886f0c091db061af845b95e45
gd1982-08-10d2t08.flac:69f41b4ede4b45f20e792da264c12a62
gd1982-08-10d2t09.flac:b40e8d015dc2bbf23b15af54576d710a
gd1982-08-10d2t10.flac:0a7dde2d7582fec44826ca12962f6a7c
gd1982-08-10d3t01.flac:d92472c3c5ba87eb18cd7392adecc3e1
gd1982-08-10d3t02.flac:557275782db64a16655fd0b9bec58a1e
gd1982-08-10d3t03.flac:d3d302201d176de15e1fe65bf23d1de2
gd1982-08-10d3t04.flac:75db7a4545a2b47b908c905fd002e486
gd1982-08-10d3t05.flac:bfe89b709a6c32692dce142d598710db
gd1982-08-10d3t06.flac:eea9e51edbe0f14ccc9f61472e430b6e
gd1982-08-10d3t07.flac:8d85f43debef99c86e027b6dc6c7b314
gd1982-08-10d3t08.flac:8f5d2b95d14f3703cccf6571b5ca8a4e
TypeGrateful Dead
Last seederLast activity 5:01 ago
Size1.081 GB (1160498443 Bytes)
Added2013-01-12 11:18:40
Views0
Hits229
Snatched81 times
Upped bySpiralLightofVenus
Num files
[See full list]
34 files
Peers
[See full list]
0 seeders, 1 leecher = 1 peer total

No comments yet

Add a comment


http://etree.org : http://db.etree.org : http://forums.etree.org : http://wiki.etree.org : Legal : RSS Feed

Contents designed & maintained by the etree.org volunteers
1998-2014, etree.org, except where noted. All Rights Reserved.
Read our terms of service and privacy guidelines