bt.etree.org
etree.org Community Bittorrent Tracker
ArtistLittle Feat
ShowLittle Feat Capitol Center For The Arts Concord, New Hampshire 1/12/2013 (Schoeps CCM4V'S FOB)
Report this as
non-Trade-Friendly
Email us
Torrentlittle2013-01-12.flac16.torrent (click to download)
Downloads aslittle2013-01-12.flac16
Info hashdbbaf3f46ceb7af9e6502d66b417ec18035387eb
db linkhttp://db.etree.org/shn/123444 | Show | Source
DescriptionLittle Feat
Capitol Center For The Arts
Concord, New Hampshire
1/12/2013

Source: Schoeps CCM4V'S(din)>Lunatec V2>Benchmark AD2K>
Sound Devices 722 (24/48)
FOB/DFC/KFC/ZFC/AARP Row V, Seat 7, 7' High
DSP: Sound Devices 722>Sound Forge 9.0>CD Wave>flac(16)
Recorded By: Z-Man
Seeded By: Z-Man

Disc I

01 Rocket In My Pocket
02 Honest Man
03 Cajun Girl
04 Salome
05 Fatman In The Bath Tub >
06 Abba Zaba >
07 Scarlet Begonias Jam >
08 Fatman In The Bath Tub

Disc II

01 Willin' >
02 Don't Bogart That Joint My Friend >
03 Willin
04 Rooster Rag
05 Dixie Chicken >
06 Bass And Drum Solo >
07 Piano And Drum Solo >
08 Drum Solo >
09 Piano And Drum Solo >
10 Dixie Chicken >
11 Lively Up Yourself Jam >
12 Dixie Chicken
Encore:
13 Thanks
14 Let It Roll

Flac Fingerprint

little2013-01-12d01t01.flac:52297cf1a862f943a1bfe772fa739e20
little2013-01-12d01t02.flac:2397bac62de249ef6165788f0286909d
little2013-01-12d01t03.flac:f30d10d20dac95c4a96968664135c844
little2013-01-12d01t04.flac:688e7c2f9f7c397d4910275878229d6e
little2013-01-12d01t05.flac:23ff2b5d5b77a92d63478b856de6b350
little2013-01-12d01t06.flac:339faf08b6dffaf808ffcc3fab22b19d
little2013-01-12d01t07.flac:4e62d2bb986af134467c27dfe6093912
little2013-01-12d01t08.flac:c31830bd8d8f5a01f2ff14f544dec278
little2013-01-12d02t01.flac:397a1cae220690e591cd4192d3772e6c
little2013-01-12d02t02.flac:7b7d04ffad7a51b802f2f16d12273d12
little2013-01-12d02t03.flac:29ab65d97e96b11d15143bc9d4863ecd
little2013-01-12d02t04.flac:306d17711fbd3f192699c9f50ac71bbb
little2013-01-12d02t05.flac:ed826918ab1916d165025806727fc691
little2013-01-12d02t06.flac:63878796b755d45ce029fd6d2c19c02b
little2013-01-12d02t07.flac:4577c4fcd185047f7c365c2cf53c5be2
little2013-01-12d02t08.flac:725fa2748f742a709ce8c3e4909db11d
little2013-01-12d02t09.flac:9b8bcae5156f28e57d90964ca1378336
little2013-01-12d02t10.flac:bb191960dbf42aa0466917636a3f9d58
little2013-01-12d02t11.flac:7282e2c286e11c6b1450654ab8955ccf
little2013-01-12d02t12.flac:2585c7d13855b1aa39585bd41ae6179b
little2013-01-12d02t13.flac:dbef1771d8ba9fa4f618bcb6140962ca
little2013-01-12d02t14.flac:c80f0b6675b736a6b85f2a31abdee4c1

Shntool

length expanded size cdr WAVE problems fmt ratio filename
6:43.04 71098652 B --- -- ---xx flac 0.5070 little2013-01-12d01t01.flac
5:25.61 57473516 B --- -- ---xx flac 0.5070 little2013-01-12d01t02.flac
7:43.67 81830828 B --- -- ---xx flac 0.5496 little2013-01-12d01t03.flac
7:15.06 76748156 B --- -- ---xx flac 0.5004 little2013-01-12d01t04.flac
6:43.06 71103356 B --- -- ---xx flac 0.5123 little2013-01-12d01t05.flac
5:26.00 57506444 B --- -- ---xx flac 0.5150 little2013-01-12d01t06.flac
0:32.53 5769500 B --- -- ---xx flac 0.5445 little2013-01-12d01t07.flac
2:50.28 30053900 B --- -- ---xx flac 0.5155 little2013-01-12d01t08.flac
8:31.21 90189836 B --- -- ---xx flac 0.3937 little2013-01-12d02t01.flac
1:29.10 15723164 B --- -- ---xx flac 0.4060 little2013-01-12d02t02.flac
0:57.42 10153628 B --- -- ---xx flac 0.4541 little2013-01-12d02t03.flac
6:22.29 67453052 B --- -- ---xx flac 0.5174 little2013-01-12d02t04.flac
4:45.62 50419868 B --- -- ---xx flac 0.4677 little2013-01-12d02t05.flac
1:45.26 18583196 B --- -- ---xx flac 0.4976 little2013-01-12d02t06.flac
2:48.57 29769308 B --- -- ---xx flac 0.4459 little2013-01-12d02t07.flac
1:14.06 13067756 B --- -- ---xx flac 0.4031 little2013-01-12d02t08.flac
1:30.25 15934844 B --- -- ---xx flac 0.4249 little2013-01-12d02t09.flac
6:24.68 67897580 B --- -- ---xx flac 0.5274 little2013-01-12d02t10.flac
0:30.11 5317916 B --- -- ---xx flac 0.4657 little2013-01-12d02t11.flac
1:59.44 21095132 B --- -- ---xx flac 0.5339 little2013-01-12d02t12.flac
0:17.72 3168188 B --- -- ---xx flac 0.4039 little2013-01-12d02t13.flac
10:14.46 108417836 B --- -- ---xx flac 0.5241 little2013-01-12d02t14.flac
91:31.69 968775656 B 0.4959 (22 files)













Checksumslittle2013-01-12d01t01.flac:52297cf1a862f943a1bfe772fa739e20
little2013-01-12d01t02.flac:2397bac62de249ef6165788f0286909d
little2013-01-12d01t03.flac:f30d10d20dac95c4a96968664135c844
little2013-01-12d01t04.flac:688e7c2f9f7c397d4910275878229d6e
little2013-01-12d01t05.flac:23ff2b5d5b77a92d63478b856de6b350
little2013-01-12d01t06.flac:339faf08b6dffaf808ffcc3fab22b19d
little2013-01-12d01t07.flac:4e62d2bb986af134467c27dfe6093912
little2013-01-12d01t08.flac:c31830bd8d8f5a01f2ff14f544dec278
little2013-01-12d02t01.flac:397a1cae220690e591cd4192d3772e6c
little2013-01-12d02t02.flac:7b7d04ffad7a51b802f2f16d12273d12
little2013-01-12d02t03.flac:29ab65d97e96b11d15143bc9d4863ecd
little2013-01-12d02t04.flac:306d17711fbd3f192699c9f50ac71bbb
little2013-01-12d02t05.flac:ed826918ab1916d165025806727fc691
little2013-01-12d02t06.flac:63878796b755d45ce029fd6d2c19c02b
little2013-01-12d02t07.flac:4577c4fcd185047f7c365c2cf53c5be2
little2013-01-12d02t08.flac:725fa2748f742a709ce8c3e4909db11d
little2013-01-12d02t09.flac:9b8bcae5156f28e57d90964ca1378336
little2013-01-12d02t10.flac:bb191960dbf42aa0466917636a3f9d58
little2013-01-12d02t11.flac:7282e2c286e11c6b1450654ab8955ccf
little2013-01-12d02t12.flac:2585c7d13855b1aa39585bd41ae6179b
little2013-01-12d02t13.flac:dbef1771d8ba9fa4f618bcb6140962ca
little2013-01-12d02t14.flac:c80f0b6675b736a6b85f2a31abdee4c1
TypeLittle Feat
Last seederLast activity 15:24:35 ago
Size458.18 MB (480437400 Bytes)
Added2013-01-13 02:20:12
Views0
Hits286
Snatched108 times
Upped byzmanatl
Num files23 files
File List
[Hide list]
filenamesizemd5
little2013-01-12d02t14.flac54.19 MBN/A
little2013-01-12d01t03.flac42.89 MBN/A
little2013-01-12d01t04.flac36.63 MBN/A
little2013-01-12d01t05.flac34.74 MBN/A
little2013-01-12d01t01.flac34.38 MBN/A
little2013-01-12d02t10.flac34.15 MBN/A
little2013-01-12d02t01.flac33.87 MBN/A
little2013-01-12d02t04.flac33.28 MBN/A
little2013-01-12d01t06.flac28.24 MBN/A
little2013-01-12d01t02.flac27.79 MBN/A
little2013-01-12d02t05.flac22.49 MBN/A
little2013-01-12d01t08.flac14.77 MBN/A
little2013-01-12d02t07.flac12.66 MBN/A
little2013-01-12d02t12.flac10.74 MBN/A
little2013-01-12d02t06.flac8.82 MBN/A
little2013-01-12d02t09.flac6.46 MBN/A
little2013-01-12d02t02.flac6.09 MBN/A
little2013-01-12d02t08.flac5.02 MBN/A
little2013-01-12d02t03.flac4.40 MBN/A
little2013-01-12d01t07.flac3.00 MBN/A
little2013-01-12d02t11.flac2.36 MBN/A
little2013-01-12d02t13.flac1.22 MBN/A
little2013--01-12.textfile.txt4.4 kBN/A
Peers
[See full list]
1 seeder, 0 leechers = 1 peer total

Add a comment

axomxa 2013-01-13 02:55:52
What took so long ha ha! Will I see you at wilbur?
gctaper64 2013-01-13 06:35:28
Thanks yet again...and so quickly!
Tom_of_Mule 2013-01-13 09:59:41
Thanks Z !
Tom
bigdaddybflo 2013-01-13 11:50:00
GO Z GO. You got my "rocket in my pocket" damn it. Thanks for the love.
2groundhog2 2013-01-13 12:47:53
Good to see you last night Z....Enjoy tonight!
zmanatl 2013-01-13 14:28:45
I drove up to Concord after working all day, to see Little Feat. Made it to the Capitol Center of the Arts and entered at about 6:55, just before doors. Ran into Corey. Stopped at Will Call and grabbed my ticket and entered the theatre. What a beutiful venue! I walked around and met the manager, Mr. Caruso. He gave me a rundown of the history of the venue. I then ran into Casey. And finally, I got to meet Chris Cafiero IN person after all these years! I have admired his work as the archivast of this legendary band. Thank you for getting me in last night!

I set up right behind row V along side Chris and Corey. After a very entertaining set by Leon Russell, we turned on our equipment and warmed it up for Feat. With the 2 band format, it looked like we would get about a 90 minute set. The boys opened up with Rocket in my Pocket. Honest Man and Cajun Girl were the next 2 and ones I did not hear last week in Fall River. Fat Man is always on my list to see. When they played Willin', I told both Chris and Howard that last week's show was perhaps the ONLY show I did not hear Willin' ever. Rooster Rag has become a staple and very nicely done. Dixie Chicken with all it's jams closed out the set. A long jammed out Let It Roll sent us out into the foggy night. Solid and very tight set!

Late Night eats consisted of 1/2 my earlier dinner, General Tso's Spicy Chicken, Boneless Spare Ribs, and Pork Fried Rice.

Here are a couple of my amateur videos to give you a feel for the night:

Dixie Chicken:
http://www.youtube.com/watch?v=jTDv0Ta5Bgg

Willin' >
Don't Bogart That Joint >
Willin':
http://www.youtube.com/watch?v=Xz8JbU7NPqI

Enjoy show #6 of 2013!
albertpujols 2013-01-14 00:06:20
Thanks for the upload and for your efforts. I was there and Feat sounded great.

Leon's voice and personality were great, and his band were clearly pros. I just wish he'd ditch that synth. There was a bit of a cheese factor, felt like Vegas in 1976 or something.
sean612 2013-01-14 10:19:45
Solid!
_MULETAPER 2013-01-14 20:10:46
I really dig this venue,and the staff.thanks for the recording.
Albix 2013-01-28 22:36:33
Now on archive.org ~> http://archive.org/details/lf2013-01-12.cmc4v.zman.123444.sbeok.flac16

Add a comment


http://etree.org : http://db.etree.org : http://forums.etree.org : http://wiki.etree.org : Legal : RSS Feed

Contents designed & maintained by the etree.org volunteers
1998-2014, etree.org, except where noted. All Rights Reserved.
Read our terms of service and privacy guidelines