bt.etree.org
etree.org Community Bittorrent Tracker
ArtistOther
ShowPlaying Dead The Church Boston, Massachusetts 1/11/2013 (Schoeps CCM4V's FOB)
Report this as
non-Trade-Friendly
Email us
Torrentplaying2013-01-11.flac16.torrent (click to download)
Downloads asplaying2013-01-11.flac16
Info hash745ed8071981498ab40dc0011496a368efc60af5
DescriptionPlaying Dead
The Church
Boston, Massachusetts
1/11/2013

Source: Schoeps CCM4V'S(din)>Lunatec V2>Benchmark AD2K>
Sound Devices 722 (24/48)
FOB/DFC/KFC/ZFC/AARP 20' From Stage, 7' High
DSP: Sound Devices 722>Sound Forge 9.0>CD Wave>flac(16)
Recorded By: Z-Man
Seeded By: Z-Man

Disc I 1st Set

01 Greeting
02 Jack Straw
03 West LA Fadeaway
04 Mama Tried >
05 Cumberland Blues
06 Next Time You See Me
07 Tennessee Jed
08 El Paso
09 Candyman
10 Hard To Handle

Disc II 1st Set Con't

01 Weather Report Suite Prelude >
02 Part I >
03 Let It Grow >
04 Deal
2nd Set:
05 Shakedown Street >
06 The Wheel >
07 Shakedown Street
08 Dear Mr. Fantasy >
09 Samson And Delilah

Disc III 2nd Set Con't

01 She Belongs To Me
02 Estimated Prophet >
03 Drum Solo >
04 Alligator >
05 Not Fade Away
06 Rubin And Cherise
Encore:
07 Brokedown Palace

Flac Fingerprint

playing2013-01-11d01t01.flac:e9352252e9698054b50224bd2cd2bb38
playing2013-01-11d01t02.flac:0098034e5d46d28e58b3cd269f76e881
playing2013-01-11d01t03.flac:885ce5dd1e33c8445787276d0225b2f1
playing2013-01-11d01t04.flac:fd69e12009dc36868d73ddaa4ce8cafd
playing2013-01-11d01t05.flac:0cbd9430d06abce7b128f130f1cbabc1
playing2013-01-11d01t06.flac:2072d7645f38ac47f78885dfe72ebb20
playing2013-01-11d01t07.flac:47639c548371e321d5ca0b5f575188f7
playing2013-01-11d01t08.flac:8086d73c3bfb4325bf21574e4b960c38
playing2013-01-11d01t09.flac:5a6ccd358d3576b65535dad52caa4ec2
playing2013-01-11d01t10.flac:3ef7c6596b83d56fa23dd9d165ad8736
playing2013-01-11d02t01.flac:9a886232a2a8e94a3b56f9fcc7b91065
playing2013-01-11d02t02.flac:800f3487005910edebb39c77bd26c7b6
playing2013-01-11d02t03.flac:83287d447517952b02bba21d382c0a12
playing2013-01-11d02t04.flac:4f627447fdfae6b2741e0799099212b2
playing2013-01-11d02t05.flac:d06dae9d03376e41d4d0ba0a58912392
playing2013-01-11d02t06.flac:79277ed30e444acf88074a496791c0f6
playing2013-01-11d02t07.flac:39826f041e725d3589c2eb988a418c2a
playing2013-01-11d02t08.flac:78987cf2643f1caf7313493ad0ff59d5
playing2013-01-11d02t09.flac:e08d1b4e42d80d4f99f2340040c46888
playing2013-01-11d03t01.flac:4899423d158db8fa2158458653355ded
playing2013-01-11d03t02.flac:bb5591bc678f7c6ff04f5fe4d9ce3941
playing2013-01-11d03t03.flac:b96fa64bc39c831cc1d2c6c7a6ab8d5d
playing2013-01-11d03t04.flac:4b034b51ffc3e293c3df579a8c24c727
playing2013-01-11d03t05.flac:471391f103d0c52f79bc76c28732ef3d
playing2013-01-11d03t06.flac:7ea0fea66a1c9ad31126a3b00d82d4b6
playing2013-01-11d03t07.flac:c99e4ff0a426f043ecf61825b88c6eed

Shntool

length expanded size cdr WAVE problems fmt ratio filename
0:36.45 6456284 B --- -- ---xx flac 0.3275 playing2013-01-11d01t01.flac
7:43.48 81786140 B --- -- ---xx flac 0.5148 playing2013-01-11d01t02.flac
9:20.35 98866364 B --- -- ---xx flac 0.4796 playing2013-01-11d01t03.flac
2:53.00 30517244 B --- -- ---xx flac 0.5343 playing2013-01-11d01t04.flac
9:01.42 95531228 B --- -- ---xx flac 0.5011 playing2013-01-11d01t05.flac
4:56.61 52357916 B --- -- ---xx flac 0.4700 playing2013-01-11d01t06.flac
8:36.68 91182380 B --- -- ---xx flac 0.4819 playing2013-01-11d01t07.flac
6:31.17 69012428 B --- -- ---xx flac 0.4727 playing2013-01-11d01t08.flac
8:08.67 86240828 B --- -- ---xx flac 0.4542 playing2013-01-11d01t09.flac
9:59.02 105668348 B --- -- ---xx flac 0.5120 playing2013-01-11d01t10.flac
1:21.63 14436620 B --- -- ---xx flac 0.4119 playing2013-01-11d02t01.flac
4:08.55 43876604 B --- -- ---xx flac 0.4875 playing2013-01-11d02t02.flac
11:02.65 116929724 B --- -- ---xx flac 0.5315 playing2013-01-11d02t03.flac
10:57.66 116050076 B --- -- ---xx flac 0.4989 playing2013-01-11d02t04.flac
11:53.25 125832044 B --- -- ---xx flac 0.4961 playing2013-01-11d02t05.flac
6:18.65 66832124 B --- -- ---xx flac 0.5084 playing2013-01-11d02t06.flac
3:56.51 41750396 B --- -- ---xx flac 0.4585 playing2013-01-11d02t07.flac
7:18.18 77305580 B --- -- ---xx flac 0.4935 playing2013-01-11d02t08.flac
7:49.62 82877468 B --- -- ---xx flac 0.5278 playing2013-01-11d02t09.flac
9:06.16 96352076 B --- -- ---xx flac 0.4612 playing2013-01-11d03t01.flac
11:27.16 121224476 B --- -- ---xx flac 0.5011 playing2013-01-11d03t02.flac
0:58.19 10275932 B --- -- ---xx flac 0.4763 playing2013-01-11d03t03.flac
5:02.56 53404556 B --- -- ---xx flac 0.5261 playing2013-01-11d03t04.flac
6:27.35 68349164 B --- -- ---xx flac 0.4883 playing2013-01-11d03t05.flac
6:31.59 69111212 B --- -- ---xx flac 0.5343 playing2013-01-11d03t06.flac
5:54.35 62527964 B --- -- ---xx flac 0.4567 playing2013-01-11d03t07.flac
178:04.41 1884755176 B 0.4945 (26 files)






Checksumsplaying2013-01-11d01t01.flac:e9352252e9698054b50224bd2cd2bb38
playing2013-01-11d01t02.flac:0098034e5d46d28e58b3cd269f76e881
playing2013-01-11d01t03.flac:885ce5dd1e33c8445787276d0225b2f1
playing2013-01-11d01t04.flac:fd69e12009dc36868d73ddaa4ce8cafd
playing2013-01-11d01t05.flac:0cbd9430d06abce7b128f130f1cbabc1
playing2013-01-11d01t06.flac:2072d7645f38ac47f78885dfe72ebb20
playing2013-01-11d01t07.flac:47639c548371e321d5ca0b5f575188f7
playing2013-01-11d01t08.flac:8086d73c3bfb4325bf21574e4b960c38
playing2013-01-11d01t09.flac:5a6ccd358d3576b65535dad52caa4ec2
playing2013-01-11d01t10.flac:3ef7c6596b83d56fa23dd9d165ad8736
playing2013-01-11d02t01.flac:9a886232a2a8e94a3b56f9fcc7b91065
playing2013-01-11d02t02.flac:800f3487005910edebb39c77bd26c7b6
playing2013-01-11d02t03.flac:83287d447517952b02bba21d382c0a12
playing2013-01-11d02t04.flac:4f627447fdfae6b2741e0799099212b2
playing2013-01-11d02t05.flac:d06dae9d03376e41d4d0ba0a58912392
playing2013-01-11d02t06.flac:79277ed30e444acf88074a496791c0f6
playing2013-01-11d02t07.flac:39826f041e725d3589c2eb988a418c2a
playing2013-01-11d02t08.flac:78987cf2643f1caf7313493ad0ff59d5
playing2013-01-11d02t09.flac:e08d1b4e42d80d4f99f2340040c46888
playing2013-01-11d03t01.flac:4899423d158db8fa2158458653355ded
playing2013-01-11d03t02.flac:bb5591bc678f7c6ff04f5fe4d9ce3941
playing2013-01-11d03t03.flac:b96fa64bc39c831cc1d2c6c7a6ab8d5d
playing2013-01-11d03t04.flac:4b034b51ffc3e293c3df579a8c24c727
playing2013-01-11d03t05.flac:471391f103d0c52f79bc76c28732ef3d
playing2013-01-11d03t06.flac:7ea0fea66a1c9ad31126a3b00d82d4b6
playing2013-01-11d03t07.flac:c99e4ff0a426f043ecf61825b88c6eed
TypeOther
Last seederLast activity 12 days, 03:50:34 ago
Size888.92 MB (932103074 Bytes)
Added2013-01-13 12:44:51
Views0
Hits225
Snatched40 times
Upped byzmanatl
Num files
[See full list]
27 files
Seeders
[Hide list]
0 Seeder(s)
Leechers
[Hide list]
0 Leecher(s)

No comments yet

Add a comment


http://etree.org : http://db.etree.org : http://forums.etree.org : http://wiki.etree.org : Legal : RSS Feed

Contents designed & maintained by the etree.org volunteers
1998-2014, etree.org, except where noted. All Rights Reserved.
Read our terms of service and privacy guidelines