bt.etree.org
etree.org Community Bittorrent Tracker
ArtistLittle Feat
ShowLittle Feat Wilbur Theatre Boston, Massachusetts 1/13/2013 (Schoeps CCM4V'S FOB)
Report this as
non-Trade-Friendly
Email us
Torrentlittle2013-01-13.flac16.torrent (click to download)
Downloads aslittle2013-01-13.flac16
Info hashe54182cd6ac353edbfa7120016870ccf7e2132d5
db linkhttp://db.etree.org/shn/123457 | Show | Source
DescriptionLittle Feat
Wilbur Theatre
Boston, Massachusetts
1/13/2013

Source: Schoeps CCM4V'S(din)>Lunatec V2>Benchmark AD2K>
Sound Devices 722 (24/48)
FOB/DFC/KFC/ZFC/AARP 30' From Stage, 8' High
DSP: Sound Devices 722>Sound Forge 9.0>CD Wave>flac(16)
Recorded By: Z-Man
Seeded By: Z-Man

Disc I

01 Fat Man In The Bath Tub >
02 Abba Zaba >
03 Scartlet Begonias Jam >
04 Fat Man In The Bath Tub
05 Feel The Groove
06 Blues Keep Comin'
07 One Breath At A Time
08 Dixie Chicken >
09 Bass And Drum Solo >
10 Piano And Drum Solo >
11 Dixie Chicken >
12 Lively Up Yourself Jam >
13 Dixie Chicken

Disc II

01 Willin' >
02 Don't Bogart that Joint >
03 Willin'
04 Rooster Rag
05 Spanish Moon
Encore:
06 Let It Roll

Flac Fingerprint

little2013-01-13d01t01.flac:e4ff99024f2edb4279269904c2b9d088
little2013-01-13d01t02.flac:924d680892ba7533c4b1d061d6c7c62a
little2013-01-13d01t03.flac:6b8701efc789d767ba2c6a15349d1fcc
little2013-01-13d01t04.flac:9d3b44ed414aa6028d2af1cd4876a60d
little2013-01-13d01t05.flac:8dfdb9358489e918e37076b111c4b5ef
little2013-01-13d01t06.flac:6c0eaee9ac7c3de4ef36a71afcb9b9d1
little2013-01-13d01t07.flac:c0e0c52e317e95ffa83fe0506950e247
little2013-01-13d01t08.flac:d66467b6843f59e56e7f3d5587d3e624
little2013-01-13d01t09.flac:e85f1a89caa8bb04a0ff2cc38940c1f0
little2013-01-13d01t10.flac:1ad429a0ad5b83fa31a9004f8e2c4ed1
little2013-01-13d01t11.flac:18e278bea278538b0316daab106f6673
little2013-01-13d01t12.flac:8a183fd04ac87f7c2ad01b17c94a455c
little2013-01-13d01t13.flac:dc830f45ea6f4f646b165d9d09d8dbc9
little2013-01-13d02t01.flac:1c216969f3fef5b7a52e482780716345
little2013-01-13d02t02.flac:7319be043b8efbe5e18ff07dc2e54d10
little2013-01-13d02t03.flac:cef8b477a41e56e495625f5477f04666
little2013-01-13d02t04.flac:199f48226249f9ad11f00b7ad9ca3e34
little2013-01-13d02t05.flac:98a52a1b0029767d4fa0589d3c75e1d8
little2013-01-13d02t06.flac:e61115860ffa4983aaf4426e59e17473

Shntool

length expanded size cdr WAVE problems fmt ratio filename
8:16.50 87612044 B --- -- ---xx flac 0.4931 little2013-01-13d01t01.flac
3:13.55 34174604 B --- -- ---xx flac 0.5168 little2013-01-13d01t02.flac
0:27.72 4932188 B --- -- ---xx flac 0.5328 little2013-01-13d01t03.flac
3:02.66 32260076 B --- -- ---xx flac 0.5045 little2013-01-13d01t04.flac
6:21.43 67309580 B --- -- ---xx flac 0.5184 little2013-01-13d01t05.flac
6:34.17 69541628 B --- -- ---xx flac 0.4878 little2013-01-13d01t06.flac
6:09.26 65152796 B --- -- ---xx flac 0.4828 little2013-01-13d01t07.flac
4:40.21 49441436 B --- -- ---xx flac 0.4396 little2013-01-13d01t08.flac
1:53.05 19945004 B --- -- ---xx flac 0.4757 little2013-01-13d01t09.flac
5:33.14 58774172 B --- -- ---xx flac 0.4097 little2013-01-13d01t10.flac
6:57.67 73716428 B --- -- ---xx flac 0.5239 little2013-01-13d01t11.flac
0:29.35 5197964 B --- -- ---xx flac 0.4153 little2013-01-13d01t12.flac
2:09.00 22755644 B --- -- ---xx flac 0.4896 little2013-01-13d01t13.flac
8:37.14 91231772 B --- -- ---xx flac 0.3799 little2013-01-13d02t01.flac
1:26.22 15222188 B --- -- ---xx flac 0.3847 little2013-01-13d02t02.flac
0:51.27 9059948 B --- -- ---xx flac 0.4456 little2013-01-13d02t03.flac
6:21.21 67257836 B --- -- ---xx flac 0.4907 little2013-01-13d02t04.flac
8:01.63 84996620 B --- -- ---xx flac 0.5259 little2013-01-13d02t05.flac
10:39.22 112771388 B --- -- ---xx flac 0.5190 little2013-01-13d02t06.flac
91:46.40 971353316 B 0.4818 (19 files)



























Checksumslittle2013-01-13d01t01.flac:e4ff99024f2edb4279269904c2b9d088
little2013-01-13d01t02.flac:924d680892ba7533c4b1d061d6c7c62a
little2013-01-13d01t03.flac:6b8701efc789d767ba2c6a15349d1fcc
little2013-01-13d01t04.flac:9d3b44ed414aa6028d2af1cd4876a60d
little2013-01-13d01t05.flac:8dfdb9358489e918e37076b111c4b5ef
little2013-01-13d01t06.flac:6c0eaee9ac7c3de4ef36a71afcb9b9d1
little2013-01-13d01t07.flac:c0e0c52e317e95ffa83fe0506950e247
little2013-01-13d01t08.flac:d66467b6843f59e56e7f3d5587d3e624
little2013-01-13d01t09.flac:e85f1a89caa8bb04a0ff2cc38940c1f0
little2013-01-13d01t10.flac:1ad429a0ad5b83fa31a9004f8e2c4ed1
little2013-01-13d01t11.flac:18e278bea278538b0316daab106f6673
little2013-01-13d01t12.flac:8a183fd04ac87f7c2ad01b17c94a455c
little2013-01-13d01t13.flac:dc830f45ea6f4f646b165d9d09d8dbc9
little2013-01-13d02t01.flac:1c216969f3fef5b7a52e482780716345
little2013-01-13d02t02.flac:7319be043b8efbe5e18ff07dc2e54d10
little2013-01-13d02t03.flac:cef8b477a41e56e495625f5477f04666
little2013-01-13d02t04.flac:199f48226249f9ad11f00b7ad9ca3e34
little2013-01-13d02t05.flac:98a52a1b0029767d4fa0589d3c75e1d8
little2013-01-13d02t06.flac:e61115860ffa4983aaf4426e59e17473
TypeLittle Feat
Last seederLast activity 89 days, 07:41:29 ago
Size446.36 MB (468039317 Bytes)
Added2013-01-14 02:33:58
Views0
Hits292
Snatched83 times
Upped byzmanatl
Num files
[See full list]
20 files
Seeders
[Hide list]
0 Seeder(s)
Leechers
[Hide list]
0 Leecher(s)

Add a comment

zmanatl 2013-01-14 02:41:11
Here are a couple of my amateur videos to give you a feel fro the room:

Dixie Chicken:
http://youtu.be/iPRllh2gYRE

Let It Roll:
http://youtu.be/9wdlJl3dQvg


indydarkstar 2013-01-14 08:37:45
thanks Z
bigdaddybflo 2013-01-14 08:39:16
My hero Z-maninal !! FEAT !!
Tom_of_Mule 2013-01-14 08:52:33
Thanks Z !
Tom
sean612 2013-01-14 10:18:51
Right on!
homegrn 2013-01-14 14:26:38
Z tkz umps wed at town?

Add a comment


http://etree.org : http://db.etree.org : http://forums.etree.org : http://wiki.etree.org : Legal : RSS Feed

Contents designed & maintained by the etree.org volunteers
1998-2014, etree.org, except where noted. All Rights Reserved.
Read our terms of service and privacy guidelines