bt.etree.org
etree.org Community Bittorrent Tracker
ArtistPhil Lesh & Friends
ShowPhil & Friends August 21, 1999 Greek Theater - Berkeley, CA * new source to circulation *
Report this as
non-Trade-Friendly
Email us
Torrentphil1999-08-21.bk4022.flac16 Berkeley CA.torrent (click to download)
Downloads asphil1999-08-21.bk4022.flac16 Berkeley CA
Info hashe8ba0dbad60418faa09ade495bb8424ed6006bae
db linkhttp://db.etree.org/shn/123455 | Show | Source
DescriptionPhil & Friends
August 21, 1999 (Saturday)
Greek Theater
Berkeley, CA

Source: FOB B&K 4022 > Sonosax M2 > HHb @ 48khz
Transfer: SONY PCM-R500 > TASCAM SS-R05 > AUDACITY > FLAC @ 48khz
Transferred on January 13, 2013 by greens_n_beans@yahoo.com

01 Intro
02 Dancing In The Street >
03 Cosmic Charlie
04 Bird Song
05 Crazy Fingers >
06 Footprints
07 The Wheel >
08 Terrapin Station
Donor Rap / Band Intros
-- Encore --
09 Box Of Rain

Phil Lesh
Steve Kimock
John Molo
Kyle Hollingsworth
Al Schnier
Michael Kang

shnTool output:
length expanded size cdr WAVE problems fmt ratio filename
0:54.521 10468092 B cxx -- ---xx flac 0.3855 phil1999-08-21t01_Intro.flac
31:23.514 361634712 B cxx -- ---xx flac 0.4700 phil1999-08-21t02_Dancing In The Street.flac
11:18.977 130363616 B cxx -- ---xx flac 0.4328 phil1999-08-21t03_Cosmic Charlie.flac
22:20.006 257281288 B cxx -- ---xx flac 0.4295 phil1999-08-21t04_Bird Song.flac
13:32.496 155999316 B cxx -- ---xx flac 0.4332 phil1999-08-21t05_Crazy Fingers.flac
15:15.539 175783612 B cxx -- ---xx flac 0.4281 phil1999-08-21t06_Footprints.flac
8:04.999 93119928 B cxx -- ---xx flac 0.4588 phil1999-08-21t07_The Wheel.flac
25:05.014 288962716 B cxx -- ---xx flac 0.4570 phil1999-08-21t08_Terrapin Station.flac
6:16.945 72373428 B cxx -- ---xx flac 0.4907 phil1999-08-21t09_Box Of Rain.flac
134:12.012 1545986708 B 0.4489 (9 files)
Checksumsphil1999-08-21t01_Intro.flac:de84f422c6a306dd0dfdb3c076308b8c
phil1999-08-21t02_Dancing In The Street.flac:d0f6ac2d8527444dccc85b45f570ba10
phil1999-08-21t03_Cosmic Charlie.flac:5cfb81b996c7367c17cfaa07e7eea00a
phil1999-08-21t04_Bird Song.flac:fef54ece7baf18fb645dd1b2173b74d9
phil1999-08-21t05_Crazy Fingers.flac:77c8f3bb4a9f9da7dbd79f667f12c0e2
phil1999-08-21t06_Footprints.flac:b79f9db5bd571e5fac7e2baf49e12cf0
phil1999-08-21t07_The Wheel.flac:ba05fde6bfd8b59a9435d14d6bb5737d
phil1999-08-21t08_Terrapin Station.flac:9c5bdffcb12ed925ff36c39926357e20
phil1999-08-21t09_Box Of Rain.flac:dbb35c4ff0749c6cf02af9803ea6ee58
TypePhil Lesh & Friends
Last seederLast activity 12:27 ago
Size661.89 MB (694046231 Bytes)
Added2013-01-14 13:23:37
Views0
Hits424
Snatched213 times
Upped bygreens_n_beans
Num files11 files
File List
[Hide list]
filenamesizemd5
phil1999-08-21.bk4022.ffp630 BN/A
phil1999-08-21.bk4022.txt2.2 kBN/A
phil1999-08-21t01_Intro.flac3.85 MBN/A
phil1999-08-21t02_Dancing In The Street.flac162.10 MBN/A
phil1999-08-21t03_Cosmic Charlie.flac53.81 MBN/A
phil1999-08-21t04_Bird Song.flac105.38 MBN/A
phil1999-08-21t05_Crazy Fingers.flac64.45 MBN/A
phil1999-08-21t06_Footprints.flac71.76 MBN/A
phil1999-08-21t07_The Wheel.flac40.74 MBN/A
phil1999-08-21t08_Terrapin Station.flac125.93 MBN/A
phil1999-08-21t09_Box Of Rain.flac33.87 MBN/A
Peers
[See full list]
1 seeder, 0 leechers = 1 peer total

Add a comment

obaaron 2013-01-14 14:53:43
Thanks!
GuinnessGoon 2013-01-14 20:14:33
This is a killer show...also no Warren is a plus so you know this is sweet.
digitalman 2013-01-14 20:23:58
DANKS BROHEIM!

Add a comment


http://etree.org : http://db.etree.org : http://forums.etree.org : http://wiki.etree.org : Legal : RSS Feed

Contents designed & maintained by the etree.org volunteers
1998-2014, etree.org, except where noted. All Rights Reserved.
Read our terms of service and privacy guidelines