bt.etree.org
etree.org Community Bittorrent Tracker
ArtistGrateful Dead
Showgd88-06-20.sbd.miller.123452.flac16
Report this as
non-Trade-Friendly
Email us
Torrentgd88-06-20.sbd.miller.123452.flac16.torrent (click to download)
Downloads asgd88-06-20.sbd.miller.123452.flac16
Info hash3b3646b7ec8f3ff6eab3c8e245fbf1cafca3f237
db linkhttp://db.etree.org/shn/123452 | Show | Source
DescriptionGrateful Dead - June 20, 1988
Alpine Valley Music Theatre - East Troy, WI

Recording Info:
Set 1: SBD -> Cassette Master -> Cassette (Sony D5/Dolby B)
Set 2: SBD -> Cassette Master -> ? -> Cassette

Transfer Info:
Cassette (Nakamichi DR-1) -> Sound Devices 744T (24bit/96k) ->
Adobe Audition v3.0 -> Samplitude Professional v11.2.1 -> FLAC/16
(2 Discs Audio / 1 DVD FLAC)

All Transfers and Mastering By Charlie Miller
charliemiller87@earthlink.net
January 5, 2013

Patch Info:
Sennheiser 441 -> Cassette Master -> Dat -> CD (shnid=17269) supplies:
Box Of Rain (0:48 - 0:53)
Don't Ease Me In (1:53 - 2:16)

Notes:
-- Disc change is seamless
-- First set has not been changed from shnid=119380
-- This 2nd set is a bit clearer than the previous source
-- Terrapin Station does not have the issues that shnid=119380 has
-- Thanks to Joe B. Jones for his help with the pitch correction

Set 1:
d1t01 - Tuning
d1t02 - Jack Straw
d1t03 - Box Of Rain
d1t04 - West L.A. Fadeaway
d1t05 - Stuck Inside of Mobile With The Memphis Blues Again
d1t06 - Loser
d1t07 - Cassidy ->
d1t08 - Don't Ease Me In

Set 2:
d1t09 - Tuning
d1t10 - Victim Or The Crime ->
d1t11 - Cumberland Blues
d1t12 - Blow Away ->
d1t13 - Ship of Fools
d2t01 - Truckin' ->
d2t02 - Terrapin Station ->
d2t03 - Drums ->
d2t04 - Space ->
d2t05 - The Other One ->
d2t06 - Wharf Rat ->
d2t07 - Around And Around ->
d2t08 - Good Lovin'

Encore:
d2t09 - U.S. Blues


SHNTOOL OUTPUT:
length expanded size cdr WAVE problems fmt ratio filename
1:53.40 20027324 B --- -- ---xx flac 0.5030 gd88-06-20d1t01.flac
6:27.06 68280956 B --- -- ---xx flac 0.5930 gd88-06-20d1t02.flac
5:01.57 53230508 B --- -- ---xx flac 0.6005 gd88-06-20d1t03.flac
8:27.34 89514812 B --- -- ---xx flac 0.5691 gd88-06-20d1t04.flac
9:12.52 97495148 B --- -- ---xx flac 0.5770 gd88-06-20d1t05.flac
7:42.20 81543884 B --- -- ---xx flac 0.5734 gd88-06-20d1t06.flac
6:28.50 68560844 B --- -- ---xx flac 0.5762 gd88-06-20d1t07.flac
3:31.44 37323932 B --- -- ---xx flac 0.5971 gd88-06-20d1t08.flac
2:08.73 22750940 B --- -- ---xx flac 0.5672 gd88-06-20d1t09.flac
6:00.34 63584012 B --- -- ---xx flac 0.6497 gd88-06-20d1t10.flac
5:14.00 55389644 B --- -- ---xx flac 0.6680 gd88-06-20d1t11.flac
6:19.74 67029692 B --- -- ---xx flac 0.6613 gd88-06-20d1t12.flac
7:54.11 83639516 B --- -- ---xx flac 0.6333 gd88-06-20d1t13.flac
6:48.35 72053564 B --- -- ---xx flac 0.6531 gd88-06-20d2t01.flac
11:35.55 122727404 B --- -- ---xx flac 0.6292 gd88-06-20d2t02.flac
6:09.15 65126924 B --- -- ---xx flac 0.6171 gd88-06-20d2t03.flac
4:37.00 48862844 B --- -- ---xx flac 0.5993 gd88-06-20d2t04.flac
8:27.20 89481884 B --- -- ---xx flac 0.6406 gd88-06-20d2t05.flac
9:12.49 97488092 B --- -- ---xx flac 0.6206 gd88-06-20d2t06.flac
3:57.52 41929148 B --- -- ---xx flac 0.6685 gd88-06-20d2t07.flac
9:31.14 100757372 B --- -- ---xx flac 0.6387 gd88-06-20d2t08.flac
5:23.50 57094844 B --- -- ---xx flac 0.6641 gd88-06-20d2t09.flac
142:05.35 1503893288 B 0.6175 (22 files)
Checksumsfc93f5d934051dbba4d78c33a605c4ac *gd88-06-20d1t01.flac
725ea6e1b3d9e351143efb875a780276 *gd88-06-20d1t02.flac
6a9d2beacf44bcad338c762f308ccff4 *gd88-06-20d1t03.flac
6d1417768a7e53810615d2ef60e52682 *gd88-06-20d1t04.flac
0378ced8742cf03b3befd6bce7a13605 *gd88-06-20d1t05.flac
388b0f146520f340f1872d0b011dfd5f *gd88-06-20d1t06.flac
172576b2e00446daee6e875b5cabac0e *gd88-06-20d1t07.flac
4044d54ab41a54601dd78293a63c9ca6 *gd88-06-20d1t08.flac
a0ac348275b2a10c95147eefc3521e08 *gd88-06-20d1t09.flac
7dc4d67cd2634be36de7e13309b6bd56 *gd88-06-20d1t10.flac
59891c71189007f52d16fb515c18b9d5 *gd88-06-20d1t11.flac
0e89c3e2bd707027809ca6837e6d513f *gd88-06-20d1t12.flac
55f43bc792b7dc08d86971f25fc93a6f *gd88-06-20d1t13.flac
f5049e65fecfaed961bacf4b64464ecf *gd88-06-20d2t01.flac
ac5d86198347d454bc43b963fff88a64 *gd88-06-20d2t02.flac
c874c178acb942db7c0713ac7546a3c1 *gd88-06-20d2t03.flac
c6320524087d45e45bb27828bb89269e *gd88-06-20d2t04.flac
f50bc46901d3a89bbe0f490010269eb1 *gd88-06-20d2t05.flac
e52ac7bee640a58afcbd6de0afd4a261 *gd88-06-20d2t06.flac
faf875c905505c37f7a8cd1d97ae1251 *gd88-06-20d2t07.flac
3bf3f87356073d8d3dd74c938632f9af *gd88-06-20d2t08.flac
8c0c065e37a1a66826c3dc444e38ed19 *gd88-06-20d2t09.flac
TypeGrateful Dead
Last seederLast activity 13:26 ago
Size885.65 MB (928672847 Bytes)
Added2013-01-15 12:43:17
Views0
Hits879
Snatched591 times
Upped byWHARFRAT73
Num files25 files
File List
[Hide list]
filenamesizemd5
gd88-06-20d2t02.flac73.65 MBN/A
gd88-06-20d2t08.flac61.37 MBN/A
gd88-06-20d2t06.flac57.69 MBN/A
gd88-06-20d2t05.flac54.67 MBN/A
gd88-06-20d1t05.flac53.65 MBN/A
gd88-06-20d1t13.flac50.52 MBN/A
gd88-06-20d1t04.flac48.58 MBN/A
gd88-06-20d2t01.flac44.88 MBN/A
gd88-06-20d1t06.flac44.59 MBN/A
gd88-06-20d1t12.flac42.28 MBN/A
gd88-06-20d1t10.flac39.39 MBN/A
gd88-06-20d1t02.flac38.62 MBN/A
gd88-06-20d2t03.flac38.33 MBN/A
gd88-06-20d1t07.flac37.68 MBN/A
gd88-06-20d2t09.flac36.16 MBN/A
gd88-06-20d1t11.flac35.29 MBN/A
gd88-06-20d1t03.flac30.49 MBN/A
gd88-06-20d2t04.flac27.93 MBN/A
gd88-06-20d2t07.flac26.73 MBN/A
gd88-06-20d1t08.flac21.25 MBN/A
gd88-06-20d1t09.flac12.31 MBN/A
gd88-06-20d1t01.flac9.61 MBN/A
gd88-06-20.123452.txt3.5 kBN/A
gd88-06-20.md51.2 kBN/A
gd88-06-20.ffp1.2 kBN/A
Peers
[See full list]
3 seeders, 0 leechers = 3 peers total

Add a comment

chaliemon 2013-01-15 20:54:35
Thank you. Second set looks monster!
mmwarchives 2013-01-16 16:02:21
Thank you!!!!
geewiz010 2013-01-16 16:17:57
Thanks for the upgrade!
Sonic_Curmudgeon 2013-01-16 18:31:41
Thanks a ton. I had a blast at this show.

Add a comment


http://etree.org : http://db.etree.org : http://forums.etree.org : http://wiki.etree.org : Legal : RSS Feed

Contents designed & maintained by the etree.org volunteers
1998-2014, etree.org, except where noted. All Rights Reserved.
Read our terms of service and privacy guidelines