bt.etree.org
etree.org Community Bittorrent Tracker
ArtistGrateful Dead
Showgd76-06-27.123462.mtx.dusborne.flac16
Report this as
non-Trade-Friendly
Email us
Torrentgd76-06-27.123462.mtx.dusborne.flac16.torrent (click to download)
Downloads asgd76-06-27.123462.mtx.dusborne.flac16
Info hash8e3ff77015d81af114e86f1539afacc479ab788a
db linkhttp://db.etree.org/shn/123462 | Show | Source
DescriptionGrateful Dead
June 27, 1976
Auditorium Theatre
Chicago, IL

2 source matrix

Soundboard (shnid:112295)
------------------------------------------------------------------------------------------
gd1976-06-27.sbd.digitalrbb.miller.112295.flac16

Recording Info:
SBD -> Cassette Master -> Apogee Ensemble -> Peak -> AIFF

Transfer Info:
AIFF -> Adobe Audition v1.5 -> Samplitude Professional v10.1 -> FLAC
(3 Discs Audio / 2 Discs FLAC)

All Mastering By Charlie Miller
charliemiller87@earthlink.net
October 22, 2008

Patch Info:
Unknown Mics -> Cassette Master -> Apogee Ensemble -> Peak -> AIFF supplies:
Cold Rain And Snow (complete track)
Cassidy (0:00 - 1:34)
Friend Of The Devil (7:19 - 7:48)
Slipknot! (1:24 - 1:49)

Notes:
-- Set 2 is seamless
-- First few notes of Cold Rain And Snow are missing
-- There is some static in Big River
-- Patch source recorded with mics placed at soundboard
-- Thanks to Digitalrbb for the supplying and digitizing the tapes
-- Thanks to Joe B. Jones for his help with the pitch correction


Audience (shnid:98796)
-----------------------------------------------------------------------------------------
gd1976-06-27.aud.moore.berger-minches.98796.flac16


Source: audience 1st generation reel (Jerry Moore's reel)

Lineage: Master cassette audience> sony tc-755 reel w/teac an-180 dolby b (10.5" @ 7.5 ips)

Transfer by Rob Berger
1st generation reel play back on Technics RS-1506>Sony NR-335>Tascam HD-P2 24/48

Editing, downsampling and FLAC encoding by David Minches

Thanks to Joe B. Jones for pitch correction.
-----------------------------------------------------------------------------------------

---Thank you Digitalrbb for supplying and digitizing the SBD.
---Thank you Charlie Miller for your mastering work on the SBD.
---Thank you Joe B. Jones for your pitch correction on both sources.
---Thank you Jerry Moore for recording the show.
---Thank you Rob Berger transfering the Aud. recording.
---Thank you David Minches for your work on the AUD.
---Thanks to germain for everything;seeding,encouragement,advice and tutelage.

Mix Ratio:
SBD 0 db
Aud -10 db
** some minor mix adjustments when needed **

Matrix by dusborne using Adobe Audition CS6 and Audacity 2.0

01-13-2013
------------------------------------------------------------------------------------------
Set 1

s1t01 - Tuning
s1t02 - Cold Rain & Snow
s1t03 - Cassidy
s1t04 - Brown Eyed Women
s1t05 - Big River
s1t06 - Ship of Fools
s1t07 - Lazy Lightnin' ->
s1t08 - Supplication
s1t09 - Friend of the Devil
s1t10 - Looks Like Rain
s1t11 - Might as Well

Set 2

s2t01 - Tuning
s2t02 - Let It Grow ->
s2t03 - Drums ->
s2t04 - Let It Grow ->
s2t05 - Wharf Rat ->
s2t06 - Samson & Delilah
s2t07 - Help on the Way ->
s2t08 - Slipknot! ->
s2t09 - Franklin's Tower ->
s2t10 - Sugar Magnolia
s2t11 - U.S. Blues
-----------------------------------------------------------------------------------------

Tagging notes:
Show information is embedded within the header of each flac file.
It will display on any player capable of directly playing flac
files. If converted to wav during processing, all tags will be
stripped, however audio data will remain unaffected. If you must
transcode to a lossy format, do so directly Flac > Lossy.
Use ffp to validate audio integrity.
Md5 values will change if tagging is altered.

dusborne 01-13-2012
----------------------------------------------------------------------------
length expanded size cdr WAVE problems fmt ratio filename
0:49.62 8789468 B --- -- ---xx flac 0.4886 gd76-06-27s1t01.flac
7:18.52 77385548 B --- -- ---xx flac 0.6753 gd76-06-27s1t02.flac
5:54.19 62490332 B --- -- ---xx flac 0.6895 gd76-06-27s1t03.flac
6:59.30 73982204 B --- -- ---xx flac 0.6850 gd76-06-27s1t04.flac
8:00.59 84810812 B --- -- ---xx flac 0.6997 gd76-06-27s1t05.flac
9:12.36 97457516 B --- -- ---xx flac 0.6716 gd76-06-27s1t06.flac
2:48.66 29790476 B --- -- ---xx flac 0.7270 gd76-06-27s1t07.flac
7:26.55 78803804 B --- -- ---xx flac 0.6793 gd76-06-27s1t08.flac
9:41.07 102504908 B --- -- ---xx flac 0.6841 gd76-06-27s1t09.flac
8:45.44 92713532 B --- -- ---xx flac 0.6832 gd76-06-27s1t10.flac
6:04.16 64247276 B --- -- ---xx flac 0.7268 gd76-06-27s1t11.flac
2:27.49 26046092 B --- -- ---xx flac 0.5900 gd76-06-27s2t01.flac
7:46.57 82336508 B --- -- ---xx flac 0.7337 gd76-06-27s2t02.flac
3:50.65 40724924 B --- -- ---xx flac 0.6763 gd76-06-27s2t03.flac
5:42.73 60500540 B --- -- ---xx flac 0.7119 gd76-06-27s2t04.flac
10:25.52 110372348 B --- -- ---xx flac 0.7032 gd76-06-27s2t05.flac
9:21.04 98969852 B --- -- ---xx flac 0.6979 gd76-06-27s2t06.flac
5:08.48 54444140 B --- -- ---xx flac 0.7162 gd76-06-27s2t07.flac
9:09.40 96937724 B --- -- ---xx flac 0.7248 gd76-06-27s2t08.flac
14:33.30 154067804 B --- -- ---xx flac 0.7074 gd76-06-27s2t09.flac
9:15.41 97998476 B --- -- ---xx flac 0.7259 gd76-06-27s2t10.flac
6:26.38 68179820 B --- -- ---xx flac 0.7114 gd76-06-27s2t11.flac
157:10.43 1663554104 B 0.6982 (22 files)
Checksumsgd76-06-27s1t01.flac:0a713c15f79f274b029b981b9997825d
gd76-06-27s1t02.flac:c48659071efcf941f03406858f163f67
gd76-06-27s1t03.flac:49a4675b6ca5daa47b1f0519600b6bd3
gd76-06-27s1t04.flac:4b9a32de2f30c989fd1352320b56db51
gd76-06-27s1t05.flac:b3a953f673199d4df5ea379c46588aed
gd76-06-27s1t06.flac:d48588e3671017341f00cd09d759e12c
gd76-06-27s1t07.flac:d7cd3c9ccbbbc07c3ab5512b7aa9e325
gd76-06-27s1t08.flac:32475d03f13f0693dcc0d6517093a0fb
gd76-06-27s1t09.flac:72ee75e362fc95ba4195a3899b54839e
gd76-06-27s1t10.flac:58a80625cbc07e5ac3c989055e921ddd
gd76-06-27s1t11.flac:ebdae34587df46da18aa1651b20564af
gd76-06-27s2t01.flac:466e0f6345d976f0732f5db9aead39e8
gd76-06-27s2t02.flac:b448a5545f0b207d2db313067d483a25
gd76-06-27s2t03.flac:f887b16f8c2310c92238419038445958
gd76-06-27s2t04.flac:e5e89bf9f2594f7f2666c87c18bf9d8e
gd76-06-27s2t05.flac:ce5509d4ec1169bc55d5c07cca22a8bb
gd76-06-27s2t06.flac:7316f9e75f2e2e5bfff2579d62b806d3
gd76-06-27s2t07.flac:ca6ac8b593e10e68e34e9df88eea5e0d
gd76-06-27s2t08.flac:c3bf6cf2a3c7d2be603d1bc28bcd6305
gd76-06-27s2t09.flac:20332b33c4577dd2bcd11a632db0694b
gd76-06-27s2t10.flac:3ce701ea3da490150e2787f16b09e8e9
gd76-06-27s2t11.flac:33a64f0fa19a85828679bef942e9a72b
TypeGrateful Dead
Last seederLast activity 7:59 ago
Size1.082 GB (1161939739 Bytes)
Added2013-01-15 18:10:00
Views0
Hits717
Snatched464 times
Upped bygermain
Num files
[See full list]
29 files
Peers
[See full list]
5 seeders, 0 leechers = 5 peers total

Add a comment

brofan 2013-01-15 18:46:15
Thanks, Germain! This show is a classic fer sure.....
braddsmi 2013-01-16 01:15:44
Thank you! This sounds beautiful. Love this show.
mmwarchives 2013-01-16 15:41:43
Thank you so very much...looking forward to it!!
balto7 2013-01-19 03:57:24
Thanks a lot! Fantastic show and it sounds great.
opener17 2013-01-27 17:40:47
ty
opener17 2013-01-27 17:41:04

Add a comment


http://etree.org : http://db.etree.org : http://forums.etree.org : http://wiki.etree.org : Legal : RSS Feed

Contents designed & maintained by the etree.org volunteers
1998-2014, etree.org, except where noted. All Rights Reserved.
Read our terms of service and privacy guidelines