bt.etree.org
etree.org Community Bittorrent Tracker
ArtistZero
Showzero1993-04-23matrix Boulder
Report this as
non-Trade-Friendly
Email us
Torrentzero1993-04-23matrix.torrent (click to download)
Downloads aszero1993-04-23matrix
Info hashf55af288d4ac0a91c5c89900855b7eb52335ef99
DescriptionZero - April 23, 1993
Fox Theatre - Boulder, CO

Recording Info:
SBD + (Stage) 4 Channel krell Ambisonic Mic ->
Mackie CR1604 -> Yamaha AD2X -> Dat Master (Teac DA-20/48k)

Transfer Info:
Dat (Tascam DA-20) -> Tascam SS-R05 -> Samplitude Professional v11.2.1 -> FLAC
(3 Discs Audio / 1 DVD FLAC)

All Transfers and Mastering By Charlie Miller
charlie@kimock.com
January 16, 2013

Notes:
-- Set 2 is seamless

Set 1:
d1t01 - Cole's Law ->
d1t02 - Tangled Hangers
d1t03 - Catalina
d1t04 - Outskirts Of Town
d1t05 - Horses
d1t06 - Mercury Blues

Set 2:
d2t01 - Highway 61 Revisited ->
d2t02 - Home On The Range
d2t03 - Tear Tags Off Mattresses
d2t04 - Many Rivers To Cross
d2t05 - Chance In A Million
d2t06 - Rigor Mortis
d3t01 - Golden Road


SHNTOOL OUTPUT:
length expanded size cdr WAVE problems fmt ratio filename
13:24.72 141994988 B --- -- ---xx flac 0.5215 zero1993-04-23d1t01.flac
15:54.12 168313868 B --- -- ---xx flac 0.5181 zero1993-04-23d1t02.flac
15:36.63 165258620 B --- -- ---xx flac 0.5169 zero1993-04-23d1t03.flac
14:17.26 151235996 B --- -- ---xx flac 0.5087 zero1993-04-23d1t04.flac
8:31.36 90225116 B --- -- ---xx flac 0.5304 zero1993-04-23d1t05.flac
8:03.27 85264748 B --- -- ---xx flac 0.5678 zero1993-04-23d1t06.flac
10:16.53 108787100 B --- -- ---xx flac 0.5663 zero1993-04-23d2t01.flac
12:19.71 130526636 B --- -- ---xx flac 0.5462 zero1993-04-23d2t02.flac
14:08.31 149660156 B --- -- ---xx flac 0.5701 zero1993-04-23d2t03.flac
11:58.05 126667004 B --- -- ---xx flac 0.5094 zero1993-04-23d2t04.flac
7:12.62 76350668 B --- -- ---xx flac 0.6027 zero1993-04-23d2t05.flac
14:23.15 152268524 B --- -- ---xx flac 0.5305 zero1993-04-23d2t06.flac
13:41.52 144946748 B --- -- ---xx flac 0.5876 zero1993-04-23d3t01.flac
159:49.00 1691500172 B 0.5407 (13 files)
Checksumszero1993-04-23d1t01.flac:06cf40dda229f7b96993067e0b52cc4d<br />
zero1993-04-23d1t02.flac:cb2a4a4015d0e25936e4b6a898b0fee9<br />
zero1993-04-23d1t03.flac:57a38cb23f5709dda388c3b9dba83380<br />
zero1993-04-23d1t04.flac:e2a757eb673f430c44bec7ee70167ba0<br />
zero1993-04-23d1t05.flac:d038caabf91d47ff77f6b3a65d8049f9<br />
zero1993-04-23d1t06.flac:19f4550a2a1c34869f5388da3ae0a016<br />
zero1993-04-23d2t01.flac:50ef3cb3827eaed43d6f7adba985506e<br />
zero1993-04-23d2t02.flac:a3e9773059e6195fd0a31d10b78e9f74<br />
zero1993-04-23d2t03.flac:f0b47443d5dbcf0018f4d374aeba1863<br />
zero1993-04-23d2t04.flac:238e7f12797eea2837d9fb566385d873<br />
zero1993-04-23d2t05.flac:af0ac40bceb81e47c12fc50130c64a24<br />
zero1993-04-23d2t06.flac:5372d94b9eaa029e94c9d98d1d415045<br />
zero1993-04-23d3t01.flac:9cc27ac941be1ecf02115987400018c0<br />
TypeZero
Last seederLast activity 6:27 ago
Size872.22 MB (914585606 Bytes)
Added2013-01-16 08:53:23
Views1
Hits418
Snatched245 times
Upped bycharlie miller
Num files
[See full list]
16 files
Seeders
[Hide list]
1 Seeder(s)
ip:portclient
version
ul
bytes
dl
bytes
ratiocompleteul
rate
dl
rate
time
connected
time
left
idle
112.71.150.xxx:22780 μtorrent 3.4.2.0 0 B 0 B N/A 100.00%
N/A N/A 2 days, 02:38:17 N/A 36:28
0 of 1 firewalled (0%) 100.00%
N/AN/A
Leechers
[Hide list]
0 Leecher(s)

Add a comment

<< Prev      Next >>
1 - 20 | 21 - 21

twoarmsteve 2013-01-29 00:49:56
I have a question about the source info here - "4 Channel krell Ambisonic Mic" - is that a typo? Krell made microphones? Ambisonic soundfield mics even?

I'm wondering if this should say "Kel ambisonic mic" - meaning a soundfield mic home-made out of 4 Kel brand microphones, maybe?

I just wasn't aware that Krell ever made mics - can't find any reference to them on the net.

That said, even if it's made with tin cans and string, the recording sounds fantastic :-)

1 - 20 | 21 - 21
<< Prev      Next >>

Add a comment


http://etree.org : http://db.etree.org : http://forums.etree.org : http://wiki.etree.org : Legal : RSS Feed

Contents designed & maintained by the etree.org volunteers
1998-2014, etree.org, except where noted. All Rights Reserved.
Read our terms of service and privacy guidelines