bt.etree.org
etree.org Community Bittorrent Tracker
ArtistGrateful Dead
Showgd76-06-03.akgD224e.holwein.miller.123464.flac16
Report this as
non-Trade-Friendly
Email us
Torrentgd76-06-03.akgD224e.holwein.miller.123464.flac16.torrent (click to download)
Downloads asgd76-06-03.akgD224e.holwein.miller.123464.flac16
Info hasha6765ae1e58dc9d3275f46926a1165b9182a287a
db linkhttp://db.etree.org/shn/123464 | Show | Source
DescriptionGrateful Dead - June 3, 1976
Paramount Theatre - Portland, OR

Recording Info:
AKG D224E -> Cassette Master -> FLAC

Mastering Info:
FLAC -> Adobe Audition CS6 -> Samplitude Professional v11.2.1 -> FLAC
(3 Discs Audio / 1 DVD FLAC)

All Mastering By Charlie Miller
charliemiller87@earthlink.net
January 15, 2013

Notes:
-- All disc changes are seamless
-- Recorded By Reinhardt Holwein
-- Thanks to Joe B. Jones for his help with the pitch correction

Set 1:
d1t01 - Tuning
d1t02 - Might As Well
d1t03 - Cassidy
d1t04 - Row Jimmy
d1t05 - Looks Like Rain
d1t06 - They Love Each Other
d1t07 - Lazy Lightning ->
d1t08 - Supplication
d1t09 - Candyman
d1t10 - The Music Never Stopped
d1t11 - Scarlet Begonias
d2t01 - Dancing In The Street

Set 2:
d2t02 - Tuning
d2t03 - Samson And Delilah
d2t04 - Crazy Fingers ->
d2t05 - Wharf Rat ->
d2t06 - Let It Grow
d2t07 - It Must Have Been The Roses
d2t08 - Around And Around
d3t01 - Help On The Way ->
d3t02 - Slipknot! ->
d3t03 - Franklin's Tower
d3t04 - One More Saturday Night

Encore:
d3t05 - The Wheel


SHNTOOL OUTPUT:
length expanded size cdr WAVE problems fmt ratio filename
2:24.26 25462796 B --- -- ---xx flac 0.5875 gd76-06-03d1t01.flac
5:52.51 62212796 B --- -- ---xx flac 0.6471 gd76-06-03d1t02.flac
5:17.70 56083484 B --- -- ---xx flac 0.6364 gd76-06-03d1t03.flac
11:20.25 120010844 B --- -- ---xx flac 0.6035 gd76-06-03d1t04.flac
9:08.24 96723692 B --- -- ---xx flac 0.6037 gd76-06-03d1t05.flac
8:59.69 95241932 B --- -- ---xx flac 0.6157 gd76-06-03d1t06.flac
2:53.58 30653660 B --- -- ---xx flac 0.6358 gd76-06-03d1t07.flac
5:54.64 62596172 B --- -- ---xx flac 0.6318 gd76-06-03d1t08.flac
7:07.60 75463964 B --- -- ---xx flac 0.6110 gd76-06-03d1t09.flac
6:52.31 72749756 B --- -- ---xx flac 0.6323 gd76-06-03d1t10.flac
11:43.47 124119788 B --- -- ---xx flac 0.6343 gd76-06-03d1t11.flac
12:35.49 133297292 B --- -- ---xx flac 0.6355 gd76-06-03d2t01.flac
1:05.61 11609516 B --- -- ---xx flac 0.5231 gd76-06-03d2t02.flac
7:05.03 74977100 B --- -- ---xx flac 0.6299 gd76-06-03d2t03.flac
11:09.11 118037516 B --- -- ---xx flac 0.6280 gd76-06-03d2t04.flac
12:36.18 133400780 B --- -- ---xx flac 0.6081 gd76-06-03d2t05.flac
15:11.70 160865084 B --- -- ---xx flac 0.6292 gd76-06-03d2t06.flac
7:40.00 81144044 B --- -- ---xx flac 0.5717 gd76-06-03d2t07.flac
7:46.49 82317692 B --- -- ---xx flac 0.6000 gd76-06-03d2t08.flac
5:43.10 60528764 B --- -- ---xx flac 0.6284 gd76-06-03d3t01.flac
11:57.59 126617612 B --- -- ---xx flac 0.6283 gd76-06-03d3t02.flac
12:32.51 132772796 B --- -- ---xx flac 0.6128 gd76-06-03d3t03.flac
6:12.05 65632604 B --- -- ---xx flac 0.6286 gd76-06-03d3t04.flac
4:47.47 50737388 B --- -- ---xx flac 0.6076 gd76-06-03d3t05.flac
193:59.58 2053257072 B 0.6193 (24 files)
Checksums0eca2127d7096e4826707873351178b3 *gd76-06-03d1t01.flac
fefc1c34c9d2c8f881ae07fb2ac3dc9a *gd76-06-03d1t02.flac
63110ea3812a6ac04df2680140cf51b7 *gd76-06-03d1t03.flac
ccb98c4cd36f2df14ef74d6508976a2a *gd76-06-03d1t04.flac
21bf871486162778c60a89feba13bf0a *gd76-06-03d1t05.flac
5c8bf2aefa8d55608747a8a311ba56b4 *gd76-06-03d1t06.flac
7265f66bcccf9ce45f2c76628a1c273c *gd76-06-03d1t07.flac
74a8cf9b391871a10fcf7780a4e0bcdb *gd76-06-03d1t08.flac
47cc06043814970401078b52d4850880 *gd76-06-03d1t09.flac
43e0f973aa136f65430288598e46ed3f *gd76-06-03d1t10.flac
f1fe05e8d0e57424ccf4e75d3f66d639 *gd76-06-03d1t11.flac
7e2b9001e1139ce13e41ee9cadf20289 *gd76-06-03d2t01.flac
5512f38f08908bfcfefc17b3b44b9b2e *gd76-06-03d2t02.flac
d15b8cc224c6ed06adfff271bfbb09b5 *gd76-06-03d2t03.flac
a6970a5ce1513f7df0f4bb269d97ee49 *gd76-06-03d2t04.flac
016b33b93277c73e57faf3e114785104 *gd76-06-03d2t05.flac
dc4824e1c00cdfe85d5a7f653e9f31e3 *gd76-06-03d2t06.flac
129c818620ecde7e306636019af5f63b *gd76-06-03d2t07.flac
7d4e6bce576bd0bdc6b2dc0ee46ccda4 *gd76-06-03d2t08.flac
3a497433a22a33d1bf121e017c1d01c3 *gd76-06-03d3t01.flac
522535ece9cb210c97e45e83ca0731fa *gd76-06-03d3t02.flac
522736b27ecca4f4395beaa14bbb665c *gd76-06-03d3t03.flac
9f8c3335f9fe6e1c0942817f1ad750cc *gd76-06-03d3t04.flac
3801bc7f4532ae1b6b637562c7c567d4 *gd76-06-03d3t05.flac
TypeGrateful Dead
Last seederLast activity 13:31:06 ago
Size1.184 GB (1271537728 Bytes)
Added2013-01-16 10:13:03
Views0
Hits515
Snatched327 times
Upped byWHARFRAT73
Num files27 files
File List
[Hide list]
filenamesizemd5
gd76-06-03d2t06.flac96.53 MBN/A
gd76-06-03d2t01.flac80.78 MBN/A
gd76-06-03d3t03.flac77.60 MBN/A
gd76-06-03d2t05.flac77.36 MBN/A
gd76-06-03d3t02.flac75.86 MBN/A
gd76-06-03d1t11.flac75.08 MBN/A
gd76-06-03d2t04.flac70.69 MBN/A
gd76-06-03d1t04.flac69.07 MBN/A
gd76-06-03d1t06.flac55.92 MBN/A
gd76-06-03d1t05.flac55.69 MBN/A
gd76-06-03d2t08.flac47.10 MBN/A
gd76-06-03d2t03.flac45.04 MBN/A
gd76-06-03d2t07.flac44.24 MBN/A
gd76-06-03d1t09.flac43.97 MBN/A
gd76-06-03d1t10.flac43.87 MBN/A
gd76-06-03d3t04.flac39.35 MBN/A
gd76-06-03d1t02.flac38.39 MBN/A
gd76-06-03d1t08.flac37.71 MBN/A
gd76-06-03d3t01.flac36.27 MBN/A
gd76-06-03d1t03.flac34.04 MBN/A
gd76-06-03d3t05.flac29.40 MBN/A
gd76-06-03d1t07.flac18.59 MBN/A
gd76-06-03d1t01.flac14.27 MBN/A
gd76-06-03d2t02.flac5.79 MBN/A
gd76-06-03.123464.txt3.3 kBN/A
gd76-06-03.md51.3 kBN/A
gd76-06-03.ffp1.3 kBN/A
Peers
[See full list]
1 seeder, 0 leechers = 1 peer total

Add a comment

germain 2013-01-16 16:45:42
I never ceased to be amazed by how many people turn their noses up at audience recordings. This is one sweet recording of a lovely show. Is it better than the board? Maybe so!
chefjellynow 2013-01-16 22:39:12
This is a gem TYVM
Headphones a must
gratefuldave78 2013-01-17 00:06:26
love this show, can't wait to hear this aud!!!
WHARFRAT73 2013-01-17 09:56:32
>> I never ceased to be amazed by how many people turn their noses up at audience recordings.

I couldn't agree more. Audience recordings are the next best thing to being there.
balto7 2013-01-19 07:36:17
Nice audience recording! I love the show too. Will put on CD asap and crank.
charlie miller 2013-01-26 20:36:34
The correct microphones used were Sony ECM-280.

Add a comment


http://etree.org : http://db.etree.org : http://forums.etree.org : http://wiki.etree.org : Legal : RSS Feed

Contents designed & maintained by the etree.org volunteers
1998-2014, etree.org, except where noted. All Rights Reserved.
Read our terms of service and privacy guidelines