bt.etree.org
etree.org Community Bittorrent Tracker
ArtistGrateful Dead
Showgd69-07-07.sbd.miller.123468.flac16
Report this as
non-Trade-Friendly
Email us
Torrentgd69-07-07.sbd.miller.123468.flac16.torrent (click to download)
Downloads asgd69-07-07.sbd.miller.123468.flac16
Info hash040c04bcc4555ba215eab654665155992c0648d2
db linkhttp://db.etree.org/shn/123468 | Show | Source
DescriptionGrateful Dead - July 7, 1969
Piedmont Park - Atlanta, GA

Recording Info:
SBD -> Cassette Master (Ampex C-90) -> Dat (44.1k)

Transfer Info:
Dat (Tascam DA-20) -> Tascam SS-R05 -> Samplitude Professional v11.2.1 -> FLAC
(2 Discs Audio / 1 Disc FLAC)

All Transfers and Mastering By Charlie Miller
charliemiller87@earthlink.net
January 16, 2013

Notes:
-- Disc change is seamless
-- Tape flips at 19:39 in Dark Star and 17:48 in Lovelight
-- This was a free concert in a city park
-- The Allman Brothers also performed
-- Gregg and Duane Allman joined in on Lovelight

Setlist:
d1t01 - Morning Dew
d1t02 - Mama Tried ->
d1t03 - High Time ->
d1t04 - Casey Jones
d1t05 - Dark Star ->
d1t06 - St. Stephen ->
d1t07 - The Eleven ->
d2t01 - Turn On Your Lovelight


SHNTOOL OUTPUT:
length expanded size cdr WAVE problems fmt ratio filename
10:25.43 110351180 B --- -- ---xx flac 0.6106 gd69-07-07d1t01.flac
3:12.57 34002908 B --- -- ---xx flac 0.6164 gd69-07-07d1t02.flac
6:16.13 66357020 B --- -- ---xx flac 0.5576 gd69-07-07d1t03.flac
8:47.33 93040460 B --- -- ---xx flac 0.5932 gd69-07-07d1t04.flac
26:50.27 284067548 B --- -- ---xx flac 0.5957 gd69-07-07d1t05.flac
6:01.50 63798044 B --- -- ---xx flac 0.6088 gd69-07-07d1t06.flac
14:31.30 153715004 B --- -- ---xx flac 0.6235 gd69-07-07d1t07.flac
37:09.13 393226220 B --- -- ---xx flac 0.6044 gd69-07-07d2t01.flac
113:14.41 1198558384 B 0.6025 (8 files)
Checksums14b0c050d06b3fc082ec43750cf89424 *gd69-07-07d1t01.flac
3fd9849e2f3d49360d92bf1b4c03157d *gd69-07-07d1t02.flac
3a10da6f1b4f5a90b6780f50d9dbad99 *gd69-07-07d1t03.flac
18b8fbe2a8d785a1b2d6815763176b41 *gd69-07-07d1t04.flac
ce437841da06e4486ca905f9860f5bbe *gd69-07-07d1t05.flac
8bf6f3300879cd2ee17c2673b2bf9fec *gd69-07-07d1t06.flac
995f38c57e1575ce09f8b10506ace69b *gd69-07-07d1t07.flac
0084397a651d488417fec40ec35a1e15 *gd69-07-07d2t01.flac
TypeGrateful Dead
Last seederLast activity 11:57 ago
Size688.66 MB (722113435 Bytes)
Added2013-01-16 10:27:33
Views0
Hits2096
Snatched1559 times
Upped byWHARFRAT73
Num files
[See full list]
11 files
Peers
[See full list]
10 seeders, 0 leechers = 10 peers total

Add a comment

<< Prev      Next >>
1 - 20 | 21 - 26

Wombat1966 2013-01-19 14:00:14
So happy to see this long lost gem is finally available. I was two and had just moved to town, but my dad wasn't the type to take us to rock concerts. CM you rock, and Atlanta is Grateful!!!!
BBuckle 2013-01-19 18:56:22
- Thanx !!
dskglf 2013-01-23 21:24:19
Killer, thanks!
Run66 2013-01-30 20:47:57
Many thanks !
haygood2 2013-02-09 11:13:42
Thanks!!
woodenalligator 2014-02-24 19:01:32
Thanks!!

1 - 20 | 21 - 26
<< Prev      Next >>

Add a comment


http://etree.org : http://db.etree.org : http://forums.etree.org : http://wiki.etree.org : Legal : RSS Feed

Contents designed & maintained by the etree.org volunteers
1998-2014, etree.org, except where noted. All Rights Reserved.
Read our terms of service and privacy guidelines