bt.etree.org
etree.org Community Bittorrent Tracker
ArtistZero
Showzero1993-04-24matrix
Report this as
non-Trade-Friendly
Email us
Torrentzero1993-04-24matrix.torrent (click to download)
Downloads aszero1993-04-24matrix
Info hash4feb844c580f98ee98a1b04b754da24f89e3aebc
DescriptionZero - April 24, 1993
Tangueray's - Fort Collins, CO

Recording Info:
(Center Stage Lip) Neumann KM254 (xy) + (Stage Front Sides Of Stage/8') AKG C61 +
Drums -> Mackie 1604 -> Yamaha AD2X -> Dat Master (Teac DA-20/48k)

Transfer Info:
Dat (Tascam DA-20) -> Tascam SS-R05 -> Samplitude Professional v11.2.1 -> FLAC
(2 Discs Audio / 1 DVD FLAC)

All Transfers and Mastering By Charlie Miller
charlie@kimock.com
January 16, 2013

Set 1:
d1t01 - Tuning
d1t02 - Baby Baby
d1t03 - Highway 61 Revisited ->
d1t04 - Home On The Range
d1t05 - Berm
d1t06 - Roll Me Over->
d1t07 - Mercury Blues

Set 2:
d2t01 - Tuning
d2t02 - End Of The World Blues
d2t03 - Did I Mention
d2t04 - Catalina ->
d2t05 - Drums ->
d2t06 - Tear Tags Off Mattresses
d2t07 - Horses ->
d2t08 - Gregg's Eggs


SHNTOOL OUTPUT:
length expanded size cdr WAVE problems fmt ratio filename
1:50.71 19571036 B --- -- ---xx flac 0.3620 zero1993-04-24d1t01.flac
11:42.31 123905756 B --- -- ---xx flac 0.5551 zero1993-04-24d1t02.flac
8:47.03 92969900 B --- -- ---xx flac 0.5879 zero1993-04-24d1t03.flac
15:12.04 160886252 B --- -- ---xx flac 0.5660 zero1993-04-24d1t04.flac
11:49.10 125091164 B --- -- ---xx flac 0.6034 zero1993-04-24d1t05.flac
16:24.37 173664668 B --- -- ---xx flac 0.5637 zero1993-04-24d1t06.flac
7:09.39 75767372 B --- -- ---xx flac 0.6254 zero1993-04-24d1t07.flac
0:37.33 6604460 B --- -- ---xx flac 0.3342 zero1993-04-24d2t01.flac
14:07.48 149523740 B --- -- ---xx flac 0.5288 zero1993-04-24d2t02.flac
6:28.35 68525564 B --- -- ---xx flac 0.6156 zero1993-04-24d2t03.flac
13:40.02 144652748 B --- -- ---xx flac 0.6143 zero1993-04-24d2t04.flac
3:03.46 32389436 B --- -- ---xx flac 0.5795 zero1993-04-24d2t05.flac
15:08.43 160272380 B --- -- ---xx flac 0.5531 zero1993-04-24d2t06.flac
8:43.60 92398364 B --- -- ---xx flac 0.5393 zero1993-04-24d2t07.flac
16:19.26 172756796 B --- -- ---xx flac 0.5868 zero1993-04-24d2t08.flac
151:04.38 1598979636 B 0.5712 (15 files)
Checksumszero1993-04-24d1t01.flac:8a8b8e7e25bd715cb32c457917f4fc54<br />
zero1993-04-24d1t02.flac:61ddc3f81bdcb9917c2df15b000b2cac<br />
zero1993-04-24d1t03.flac:3f467931421ce07ecc4cc4f66dd3b832<br />
zero1993-04-24d1t04.flac:655710f3693eae9c6ec65c01bc6a9c12<br />
zero1993-04-24d1t05.flac:9cbe8fd56168ccf4b097f9436b3c1770<br />
zero1993-04-24d1t06.flac:f4dee46832fcac7018ff8f2eba55566b<br />
zero1993-04-24d1t07.flac:fa020be46594290d6ff5f6a89be00ea5<br />
zero1993-04-24d2t01.flac:a450506174f46e4221b1c4b8b3c0eee9<br />
zero1993-04-24d2t02.flac:027e04f96334fbd3b825660ffde32301<br />
zero1993-04-24d2t03.flac:225eb1b9cbce34f50ce5755502ad3ec8<br />
zero1993-04-24d2t04.flac:b83c22d08da4e8944da4b6ccdc6f4bff<br />
zero1993-04-24d2t05.flac:7ee1aebd70d9c565238c7e78c53756f2<br />
zero1993-04-24d2t06.flac:19bf43b888f7366139335ad1aea57cac<br />
zero1993-04-24d2t07.flac:dabc855a410dff41c5606ab72801d430<br />
zero1993-04-24d2t08.flac:6e4a3e06aa4a0063f8b8e5457899937b<br />
TypeZero
Last seederLast activity 7 days, 09:05:13 ago
Size870.98 MB (913290677 Bytes)
Added2013-01-16 15:52:40
Views2
Hits310
Snatched145 times
Upped bycharlie miller
Num files18 files
File List
[Hide list]
filenamesizemd5
zero1993-04-24.ffp885 BN/A
zero1993-04-24.md5900 BN/A
zero1993-04-24.txt2.3 kBN/A
zero1993-04-24d1t01.flac6.76 MBN/A
zero1993-04-24d1t02.flac65.59 MBN/A
zero1993-04-24d1t03.flac52.13 MBN/A
zero1993-04-24d1t04.flac86.85 MBN/A
zero1993-04-24d1t05.flac71.98 MBN/A
zero1993-04-24d1t06.flac93.35 MBN/A
zero1993-04-24d1t07.flac45.19 MBN/A
zero1993-04-24d2t01.flac2.10 MBN/A
zero1993-04-24d2t02.flac75.41 MBN/A
zero1993-04-24d2t03.flac40.23 MBN/A
zero1993-04-24d2t04.flac84.74 MBN/A
zero1993-04-24d2t05.flac17.90 MBN/A
zero1993-04-24d2t06.flac84.55 MBN/A
zero1993-04-24d2t07.flac47.52 MBN/A
zero1993-04-24d2t08.flac96.68 MBN/A
Peers
[See full list]
1 seeder, 0 leechers = 1 peer total

Add a comment

biodtl2 2013-01-16 16:32:46
Etree ID 123470
mikefreed 2013-01-16 17:40:15
thank you so much for more ZERO
gdv 2013-01-17 16:18:12
@charlie miller

We seem to have lost both the seed and the listing on the index (home) page for this zero1993-04-24matrix show ( http://bt.etree.org/details.php?id=561444 ).

45 leechers stuck at 68% downloaded, and torrent inactive for over 17 hours per my uTorrent client.

Any chance of restoring/reseeding?

Thanks! :)

(Although this page still shows up if you enter the URL manually, I've posted a similar request at ( ) because this page isn't currently listed on the index (home) page.)
gdv 2013-01-18 04:06:08
@charlie miller

Thanks for the Zero uploads and for re-seeding this one! :)

Add a comment


http://etree.org : http://db.etree.org : http://forums.etree.org : http://wiki.etree.org : Legal : RSS Feed

Contents designed & maintained by the etree.org volunteers
1998-2014, etree.org, except where noted. All Rights Reserved.
Read our terms of service and privacy guidelines