bt.etree.org
etree.org Community Bittorrent Tracker
ArtistGrateful Dead
Showgd76-07-12.ecm270.menke.miller.123474.flac16
Report this as
non-Trade-Friendly
Email us
Torrentgd76-07-12.ecm270.menke.miller.123474.sbeok.flac16.torrent (click to download)
Downloads asgd76-07-12.ecm270.menke.miller.123474.sbeok.flac16
Info hashe7ed3c3354b7b492013f78800341a13a8c0e165d
db linkhttp://db.etree.org/shn/123474 | Show | Source
DescriptionGrateful Dead - July 12, 1976
Orpheum Theatre - San Francisco, CA

Recording Info:
(Front Row Balcony) Sony ECM-270 -> Cassette Master (Sony TC-152SD) -> Dat

Transfer Info:
Dat (Sony R500) -> Tascam SS-R05 -> Samplitude Professional v11.2 -> FLAC
(3 Discs Audio / 1 DVD FLAC)

Recorded By Bob Menke
All Transfers and Mastering By Charlie Miller
charliemiller87@earthlink.net
March 21, 2011

Notes:
-- Set 2 is seamless
-- U.S. Blues has an extra reel gen
-- Thanks to Joe B. Jones for his help pitch correcting the encore

Set 1:
d1t01 - Tuning
d1t02 - The Music Never Stopped
d1t03 - Brown Eyed Women
d1t04 - Cassidy
d1t05 - Tennessee Jed
d1t06 - New Minglewood Blues
d1t07 - Candyman
d1t08 - Looks Like Rain
d1t09 - Row Jimmy
d1t10 - Lazy Lightning ->
d1t11 - Supplication
d1t12 - Deal
d1t13 - Promised Land

Set 2:
d2t01 - Tuning
d2t02 - Sugaree
d2t03 - Samson And Delilah
d2t04 - Help On The Way ->
d2t05 - Slipknot! ->
d2t06 - Franklin's Tower ->
d2t07 - Dancin' In The Streets
d3t01 - Wharf Rat ->
d3t02 - Drums ->
d3t03 - The Wheel ->
d3t04 - Around And Around

Encore:
d3t05 - U.S. Blues


SHNTOOL OUTPUT:
length expanded size cdr WAVE problems fmt ratio filename
1:16.73 13578140 B --- -- ---xx flac 0.6665 gd76-07-12d1t01.flac
6:08.29 64983452 B --- -- ---xx flac 0.6682 gd76-07-12d1t02.flac
6:23.58 67697660 B --- -- ---xx flac 0.6290 gd76-07-12d1t03.flac
4:30.40 47722124 B --- -- ---xx flac 0.6662 gd76-07-12d1t04.flac
9:18.24 98487692 B --- -- ---xx flac 0.6457 gd76-07-12d1t05.flac
5:07.48 54267740 B --- -- ---xx flac 0.6632 gd76-07-12d1t06.flac
7:26.42 78773228 B --- -- ---xx flac 0.6444 gd76-07-12d1t07.flac
6:49.27 72211148 B --- -- ---xx flac 0.6398 gd76-07-12d1t08.flac
10:35.47 112124588 B --- -- ---xx flac 0.6309 gd76-07-12d1t09.flac
2:54.14 30726572 B --- -- ---xx flac 0.6710 gd76-07-12d1t10.flac
5:51.63 62064620 B --- -- ---xx flac 0.6710 gd76-07-12d1t11.flac
5:01.08 53115260 B --- -- ---xx flac 0.6824 gd76-07-12d1t12.flac
4:24.09 46590812 B --- -- ---xx flac 0.6755 gd76-07-12d1t13.flac
0:30.29 5360252 B --- -- ---xx flac 0.5423 gd76-07-12d2t01.flac
11:11.44 118467932 B --- -- ---xx flac 0.6524 gd76-07-12d2t02.flac
7:21.02 77797148 B --- -- ---xx flac 0.6662 gd76-07-12d2t03.flac
5:11.03 54867500 B --- -- ---xx flac 0.6604 gd76-07-12d2t04.flac
6:55.12 73234268 B --- -- ---xx flac 0.6705 gd76-07-12d2t05.flac
13:58.70 147987884 B --- -- ---xx flac 0.6708 gd76-07-12d2t06.flac
12:05.06 127904156 B --- -- ---xx flac 0.6905 gd76-07-12d2t07.flac
12:18.08 130202060 B --- -- ---xx flac 0.6637 gd76-07-12d3t01.flac
4:31.53 47929100 B --- -- ---xx flac 0.6786 gd76-07-12d3t02.flac
4:50.28 51221900 B --- -- ---xx flac 0.6763 gd76-07-12d3t03.flac
8:12.44 86892332 B --- -- ---xx flac 0.6939 gd76-07-12d3t04.flac
7:35.30 80332604 B --- -- ---xx flac 0.6771 gd76-07-12d3t05.flac
170:29.61 1804540172 B 0.6635 (25 files)
Checksums8a7579dfa9839027bb6340776e21fc22 *gd76-07-12d1t01.flac
0e64fe232bf1463a369b0d8486d88a52 *gd76-07-12d1t02.flac
71322345fb92dbaa37b03bb7d77de4b3 *gd76-07-12d1t03.flac
82724fbe8a391f590f0e4c19fa9f75e8 *gd76-07-12d1t04.flac
304618f5dee44e91292e1e4e04d520d4 *gd76-07-12d1t05.flac
b7bd3dc165866caab488b9ecf0fd59c6 *gd76-07-12d1t06.flac
94a4f58641f6a06ca5dbf1759412466e *gd76-07-12d1t07.flac
66aa12637f8eb64ac6f47defc53cdb8a *gd76-07-12d1t08.flac
918ad845b2f57c8b4e3ce69eb543f670 *gd76-07-12d1t09.flac
b52fb413da49e8486e92153e8446c91c *gd76-07-12d1t10.flac
e456948eadbad617ef0f7404e3d0a14b *gd76-07-12d1t11.flac
5b9e34a62a9cc1e0200642b834d9e602 *gd76-07-12d1t12.flac
f4d553429ee40a6df8c5dacadd8f4ab0 *gd76-07-12d1t13.flac
2bdcc19b543abe421e930f3bcc75f4b6 *gd76-07-12d2t01.flac
8863faea64f735412f65a394c0659d12 *gd76-07-12d2t02.flac
ca9fc124b4321b80bffe3ff30afa61b2 *gd76-07-12d2t03.flac
8e9283674f90d968af99db1f6223ba77 *gd76-07-12d2t04.flac
b3c8aa0befc64ad671268f9424e89f1c *gd76-07-12d2t05.flac
33b1797bf0015014bb48c9bbf87cd5d3 *gd76-07-12d2t06.flac
8a09d7e5a788dff2a3e6cd0e7a27646f *gd76-07-12d2t07.flac
80d2aa1a00950693530e0c58d9aa3332 *gd76-07-12d3t01.flac
17d87537b62d012472d7330cb153d293 *gd76-07-12d3t02.flac
77ed17c6fe33da1484861a86d2316e30 *gd76-07-12d3t03.flac
aa2f3d7e72ccbb70cbd20cc3ef849920 *gd76-07-12d3t04.flac
ae53b1495aeaf7516c9e9725b95c48b9 *gd76-07-12d3t05.flac
TypeGrateful Dead
Last seederLast activity 18:55 ago
Size1.115 GB (1197347502 Bytes)
Added2013-01-17 11:54:33
Views0
Hits532
Snatched337 times
Upped byWHARFRAT73
Num files
[See full list]
28 files
Seeders
[Hide list]
2 Seeder(s)
ip:portclient
version
ul
bytes
dl
bytes
ratiocompleteul
rate
dl
rate
time
connected
time
left
idle
162.197.121.xxx:6881 0 B 0 B N/A 100.00%
N/A N/A 16:19:23 N/A 18:55
68.36.242.xxx:12025 μtorrent 3.4.2.0 0 B 0 B N/A 100.00%
N/A N/A 2 days, 03:27:16 N/A 19:34
0 of 2 firewalled (0%) 100.00%
N/AN/A
Leechers
[Hide list]
0 Leecher(s)

Add a comment

enso 2013-01-17 17:15:06
Sweet -- many thanks for sharing -- really looking forward to hearing this.
MattyE 2013-01-17 20:55:58
Thanks!
philandjenny 2013-01-18 18:11:15
many thanks for this and the other remasters in this run
Cheers from Oz
Phil :>)
BBuckle 2013-01-19 19:00:50
- Thanks !!

Add a comment


http://etree.org : http://db.etree.org : http://forums.etree.org : http://wiki.etree.org : Legal : RSS Feed

Contents designed & maintained by the etree.org volunteers
1998-2014, etree.org, except where noted. All Rights Reserved.
Read our terms of service and privacy guidelines