bt.etree.org
etree.org Community Bittorrent Tracker
ArtistGrateful Dead
Showgd76-07-13.ecm270.menke.miller.123475.flac16
Report this as
non-Trade-Friendly
Email us
Torrentgd76-07-13.ecm270.menke.miller.123475.sbeok.flac16.torrent (click to download)
Downloads asgd76-07-13.ecm270.menke.miller.123475.sbeok.flac16
Info hash6e129d8d6f6fb62d291a3b8e8c0b0f86abfe0d95
db linkhttp://db.etree.org/shn/123475 | Show | Source
DescriptionGrateful Dead - July 13, 1976
Orpheum Theatre - San Francisco, CA

Recording Info:
(Front Row Balcony) Sony ECM-270 -> Cassette Master (Sony TC-152SD) -> Dat

Transfer Info:
Dat (Sony R500) -> Tascam SS-R05 -> Samplitude Professional v11.2 -> FLAC
(2 Discs Audio / 1 DVD FLAC)

Recorded By Bob Menke
All Transfers and Mastering By Charlie Miller
charliemiller87@earthlink.net
April 9, 2011

Notes:
-- Disc change is seamless

Set 1:
d1t01 - Mississippi Half-Step Uptown Toodeloo
d1t02 - Big River
d1t03 - Peggy-O
d1t04 - Cassidy
d1t05 - Crazy Fingers ->
d1t06 - Let It Grow ->
d1t07 - Might As Well

Set 2:
d1t08 - Tuning
d1t09 - The Music Never Stopped
d2t01 - It Must Have Been The Roses
d2t02 - Samson And Delilah
d2t03 - High Time
d2t04 - Saint Stephen ->
d2t05 - Not Fade Away ->
d2t06 - Saint Stephen ->
d2t07 - Sugar Magnolia ->
d2t08 - Stella Blue ->
d2t09 - Sunshine Daydream

Encore:
d2t10 - Dancin' In The Street


SHNTOOL OUTPUT:
length expanded size cdr WAVE problems fmt ratio filename
9:32.49 101016092 B --- -- ---xx flac 0.6455 gd76-07-13d1t01.flac
6:23.64 67711772 B --- -- ---xx flac 0.6609 gd76-07-13d1t02.flac
8:15.17 87358028 B --- -- ---xx flac 0.6385 gd76-07-13d1t03.flac
5:30.19 58256732 B --- -- ---xx flac 0.6657 gd76-07-13d1t04.flac
14:53.64 157675772 B --- -- ---xx flac 0.6640 gd76-07-13d1t05.flac
16:50.44 178267532 B --- -- ---xx flac 0.6811 gd76-07-13d1t06.flac
5:26.41 57602876 B --- -- ---xx flac 0.6856 gd76-07-13d1t07.flac
1:26.48 15283340 B --- -- ---xx flac 0.5785 gd76-07-13d1t08.flac
8:25.49 89197292 B --- -- ---xx flac 0.6635 gd76-07-13d1t09.flac
7:58.22 84370988 B --- -- ---xx flac 0.6269 gd76-07-13d2t01.flac
7:43.46 81781436 B --- -- ---xx flac 0.6667 gd76-07-13d2t02.flac
8:56.40 94644524 B --- -- ---xx flac 0.6153 gd76-07-13d2t03.flac
4:44.70 50262284 B --- -- ---xx flac 0.6615 gd76-07-13d2t04.flac
10:53.37 115276268 B --- -- ---xx flac 0.6672 gd76-07-13d2t05.flac
0:49.45 8749484 B --- -- ---xx flac 0.6730 gd76-07-13d2t06.flac
5:29.70 58200284 B --- -- ---xx flac 0.6921 gd76-07-13d2t07.flac
10:58.33 116148860 B --- -- ---xx flac 0.6419 gd76-07-13d2t08.flac
4:22.40 46310924 B --- -- ---xx flac 0.6732 gd76-07-13d2t09.flac
14:37.15 154738124 B --- -- ---xx flac 0.6832 gd76-07-13d2t10.flac
153:19.63 1622852612 B 0.6603 (19 files)
Checksums6c5ebf1a6341303553057a10fa177310 *gd76-07-13d1t01.flac
c807d5ea476253e2b6d5ea3798759057 *gd76-07-13d1t02.flac
0d3cd477f2cec4ddbbe99d8aa7cc85b7 *gd76-07-13d1t03.flac
72a496ec16abbc4cc46dfb1842402c93 *gd76-07-13d1t04.flac
e10744c9d67317915c69251d172c885e *gd76-07-13d1t05.flac
5918a20ffad68525a49b6b31207e756c *gd76-07-13d1t06.flac
95afc14692ce94206f43dcf344f70c9c *gd76-07-13d1t07.flac
596ba01b3848e1af3455da23f1d239c0 *gd76-07-13d1t08.flac
4965cb23a502697e18ca2b944da93855 *gd76-07-13d1t09.flac
7457c36324e76a23e6fd59a9f34cf4a6 *gd76-07-13d2t01.flac
ad603112a704c53bb6ffff8b59718209 *gd76-07-13d2t02.flac
9e9a4648581318d3c613c9957ff07501 *gd76-07-13d2t03.flac
2f75dd57b8f911370229459b1e541682 *gd76-07-13d2t04.flac
741e46f72b0bf0277742e7ef20320898 *gd76-07-13d2t05.flac
6f29baa823f47e5a4d301b1a3c83a5db *gd76-07-13d2t06.flac
1078a2749b90a6c3812ac88c22943c91 *gd76-07-13d2t07.flac
b44b3690fb708be893afd5a584a566f8 *gd76-07-13d2t08.flac
37a29b775d870ff0dd8f70982df6c292 *gd76-07-13d2t09.flac
f13a6f7d3f5406244d0e5bfdd29802f5 *gd76-07-13d2t10.flac
TypeGrateful Dead
Last seederLast activity 23:13 ago
Size1021.94 MB (1071577017 Bytes)
Added2013-01-17 11:57:40
Views0
Hits531
Snatched375 times
Upped byWHARFRAT73
Num files
[See full list]
22 files
Seeders
[Hide list]
4 Seeder(s)
ip:portclient
version
ul
bytes
dl
bytes
ratiocompleteul
rate
dl
rate
time
connected
time
left
idle
71.8.2.xxx:30446 570.75 MB 0 B 100.00%
0 B/s N/A 2 days, 06:06:54 N/A 30:15
174.45.81.xxx:43611 191.97 MB 0 B 100.00%
0 B/s N/A 1:25:46 N/A 17:38
71.65.86.xxx:50672 0 B 0 B N/A 100.00%
N/A N/A 3:53:21 N/A 23:13
162.197.121.xxx:6881 0 B 0 B N/A 100.00%
N/A N/A 16:13:55 N/A 10:09
0 of 4 firewalled (0%) 100.00%
N/AN/A
Leechers
[Hide list]
0 Leecher(s)

Add a comment

andrewrclinton 2013-01-17 12:08:19
Much Thanks!
nickautry 2013-01-17 15:07:43
badass.
JohnChimpo 2013-01-17 17:22:35
Crazy Fingers > Let It Grow > Might As Well!!!!!!!
MattyE 2013-01-18 06:12:21
Appreciate it!

Add a comment


http://etree.org : http://db.etree.org : http://forums.etree.org : http://wiki.etree.org : Legal : RSS Feed

Contents designed & maintained by the etree.org volunteers
1998-2014, etree.org, except where noted. All Rights Reserved.
Read our terms of service and privacy guidelines