bt.etree.org
etree.org Community Bittorrent Tracker
ArtistGrateful Dead
Showgd76-07-14.ecm270.menke.miller.123476.flac16
Report this as
non-Trade-Friendly
Email us
Torrentgd76-07-14.ecm270.menke.miller.123476.sbeok.flac16.torrent (click to download)
Downloads asgd76-07-14.ecm270.menke.miller.123476.sbeok.flac16
Info hash044ba9e4139923a46edc59510cdeed7a34b84c3b
db linkhttp://db.etree.org/shn/123476 | Show | Source
DescriptionGrateful Dead - July 14, 1976
Orpheum Theatre - San Francisco, CA

Recording Info:
(Front Row Balcony) Sony ECM-270 -> Cassette Master (Sony TC-152SD) -> Dat

Transfer Info:
Dat (Sony R500) -> Tascam SS-R05 -> Samplitude Professional v11.2 -> FLAC
(3 Discs Audio / 1 DVD FLAC)

Recorded By Bob Menke
All Transfers and Mastering By Charlie Miller
charliemiller87@earthlink.net
March 21, 2011

Notes:
-- All disc changes are seamless

Set 1:
d1t01 - Promised Land
d1t02 - Sugaree
d1t03 - New Minglewood Blues
d1t04 - Scarlet Begonias
d1t05 - Looks Like Rain
d1t06 - They Love Each Other
d1t07 - Mama Tried
d1t08 - Ship Of Fools
d2t01 - Playing In The Band ->
d2t02 - Drums ->
d2t03 - The Wheel ->
d2t04 - Playing In The Band

Set 2:
d2t05 - Brown Eyed Women ->
d2t06 - Samson And Delilah
d2t07 - Friend Of The Devil
d3t01 - Let It Grow ->
d3t02 - Eyes Of The World ->
d3t03 - Wharf Rat ->
d3t04 - The Other One ->
d3t05 - The Music Never Stopped

Encore:
d3t06 - Johnny B. Goode


SHNTOOL OUTPUT:
length expanded size cdr WAVE problems fmt ratio filename
4:51.11 51358316 B --- -- ---xx flac 0.6642 gd76-07-14d1t01.flac
11:00.49 116539292 B --- -- ---xx flac 0.6513 gd76-07-14d1t02.flac
5:17.22 55970588 B --- -- ---xx flac 0.6716 gd76-07-14d1t03.flac
10:29.40 111049724 B --- -- ---xx flac 0.6632 gd76-07-14d1t04.flac
7:33.48 80022140 B --- -- ---xx flac 0.6360 gd76-07-14d1t05.flac
7:13.41 76477676 B --- -- ---xx flac 0.6501 gd76-07-14d1t06.flac
3:36.66 38257676 B --- -- ---xx flac 0.6629 gd76-07-14d1t07.flac
9:43.73 103012940 B --- -- ---xx flac 0.6290 gd76-07-14d1t08.flac
10:23.67 110054828 B --- -- ---xx flac 0.6728 gd76-07-14d2t01.flac
3:16.59 34713212 B --- -- ---xx flac 0.6616 gd76-07-14d2t02.flac
14:26.65 152915324 B --- -- ---xx flac 0.6400 gd76-07-14d2t03.flac
7:59.06 84509756 B --- -- ---xx flac 0.6329 gd76-07-14d2t04.flac
4:42.30 49815404 B --- -- ---xx flac 0.6509 gd76-07-14d2t05.flac
8:46.04 92795852 B --- -- ---xx flac 0.6626 gd76-07-14d2t06.flac
8:49.52 93437948 B --- -- ---xx flac 0.6271 gd76-07-14d2t07.flac
9:46.08 103389260 B --- -- ---xx flac 0.6647 gd76-07-14d3t01.flac
12:45.32 135021308 B --- -- ---xx flac 0.6466 gd76-07-14d3t02.flac
10:33.61 111804716 B --- -- ---xx flac 0.6364 gd76-07-14d3t03.flac
8:34.57 90803708 B --- -- ---xx flac 0.6605 gd76-07-14d3t04.flac
6:37.38 70120220 B --- -- ---xx flac 0.6596 gd76-07-14d3t05.flac
3:56.22 41682188 B --- -- ---xx flac 0.6805 gd76-07-14d3t06.flac
170:25.26 1803752076 B 0.6512 (21 files)
Checksumsa360cd08c2151d17df94af801a721e04 *gd76-07-14d1t01.flac
771bdb60c4ff78a9b5a348e29390c38d *gd76-07-14d1t02.flac
dbd1dcd312d4651b203f87cd4ac10892 *gd76-07-14d1t03.flac
7dd30cf71fc068d49cf70caa9c524f52 *gd76-07-14d1t04.flac
dbdd894a080a9fb6beda0fc18647929a *gd76-07-14d1t05.flac
76e6edf6f607b454a9ed96bf965534fc *gd76-07-14d1t06.flac
3b65f39fa1704f5be1b650efbb0c4bd0 *gd76-07-14d1t07.flac
41b6a4704fd7c2e935972749c630ef15 *gd76-07-14d1t08.flac
d990b3481be97899d7173d0a54f9a546 *gd76-07-14d2t01.flac
d6bade325d7ae1048c9c893fb7aa0f4f *gd76-07-14d2t02.flac
b309dfa86edac8d40d127f29b7290e00 *gd76-07-14d2t03.flac
8669e2714db55bb4549d418a7eaf15b8 *gd76-07-14d2t04.flac
18592bca9c527d90e499300419fd7732 *gd76-07-14d2t05.flac
641baf7d8c4689b8176a1a74fd1bccb5 *gd76-07-14d2t06.flac
d5b961f9a48fbb900ed62fb5de92f599 *gd76-07-14d2t07.flac
fbe6c5b410c0dd987148c7f79e12f6d3 *gd76-07-14d3t01.flac
775726ec57cfbc6275cbd3bc0972a259 *gd76-07-14d3t02.flac
066fd8c095313e39218cdaad6e21cd9c *gd76-07-14d3t03.flac
8eecf4cf8106f8e860cabe8dca52b970 *gd76-07-14d3t04.flac
bdbb03daa2103adf6061c1faf0f9965a *gd76-07-14d3t05.flac
7fd76db68056ad4473961cbe8e6cfdbc *gd76-07-14d3t06.flac
TypeGrateful Dead
Last seederLast activity 4:22 ago
Size1.094 GB (1174671220 Bytes)
Added2013-01-17 11:59:34
Views0
Hits533
Snatched368 times
Upped byWHARFRAT73
Num files
[See full list]
24 files
Seeders
[Hide list]
3 Seeder(s)
ip:portclient
version
ul
bytes
dl
bytes
ratiocompleteul
rate
dl
rate
time
connected
time
left
idle
162.197.121.xxx:6881 1.09 MB 0 B 100.00%
0 B/s N/A 7 days, 01:39:43 N/A 34:22
174.45.76.xxx:43611 0 B 0 B N/A 100.00%
N/A N/A 13:25 N/A 13:25
98.177.182.xxx:24544 Azureus 5.3.0.1 0 B 0 B N/A 100.00%
N/A N/A 3:54:57 N/A 25:19
0 of 3 firewalled (0%) 100.00%
N/AN/A
Leechers
[Hide list]
0 Leecher(s)

Add a comment

enso 2013-01-17 17:16:11
Thanks again!
MattyE 2013-01-18 06:11:51
Thanks!
firemt66 2013-01-18 18:15:30
thanks

Add a comment


http://etree.org : http://db.etree.org : http://forums.etree.org : http://wiki.etree.org : Legal : RSS Feed

Contents designed & maintained by the etree.org volunteers
1998-2014, etree.org, except where noted. All Rights Reserved.
Read our terms of service and privacy guidelines