bt.etree.org
etree.org Community Bittorrent Tracker
ArtistGrateful Dead
Showgd76-07-16.ecm270.menke.miller.123477.flac16
Report this as
non-Trade-Friendly
Email us
Torrentgd76-07-16.ecm270.menke.miller.123477.sbeok.flac16.torrent (click to download)
Downloads asgd76-07-16.ecm270.menke.miller.123477.sbeok.flac16
Info hash576f06945b34cf6f6926ae8c8dd0a3d2210de44b
db linkhttp://db.etree.org/shn/123477 | Show | Source
DescriptionGrateful Dead - July 16, 1976
Orpheum Theatre - San Francisco, CA

Recording Info:
(Front Row Balcony) Sony ECM-270 -> Cassette Master (Sony TC-152SD) -> Dat

Transfer Info:
Dat (Sony R500) -> Tascam SS-R05 -> Samplitude Professional v11.2.1 -> FLAC
(3 Discs Audio / 1 DVD FLAC)

Recorded By Bob Menke
All Transfers and Mastering By Charlie Miller
charliemiller87@earthlink.net
January 16, 2013

Notes:
-- Set 2 is seamless

Set 1:
d1t01 - Cold Rain And Snow
d1t02 - Cassidy
d1t03 - Deal
d1t04 - Mama Tried
d1t05 - Row Jimmy
d1t06 - Big River
d1t07 - Brown Eyed Women
d1t08 - Looks Like Rain
d1t09 - Peggy-O
d1t10 - The Music Never Stopped
d1t11 - Scarlet Begonias

Set 2:
d2t01 - Tuning
d2t02 - Playing In The Band ->
d2t03 - Stronger Than Dirt Or Milkin' The Turkey ->
d2t04 - Cosmic Charlie ->
d2t05 - Samson And Delilah ->
d2t06 - Spanish Jam ->
d2t07 - Drums ->
d2t08 - The Wheel ->
d2t09 - Playing In The Band ->
d2t10 - Around And Around
d2t11 - High Time
d3t01 - Sugar Magnolia

Encore:
d3t02 - U.S. Blues


SHNTOOL OUTPUT:
length expanded size cdr WAVE problems fmt ratio filename
8:53.48 94134140 B --- -- ---xx flac 0.6424 gd76-07-16d1t01.flac
4:43.54 50048252 B --- -- ---xx flac 0.6565 gd76-07-16d1t02.flac
5:16.09 55763612 B --- -- ---xx flac 0.6501 gd76-07-16d1t03.flac
3:30.47 37154588 B --- -- ---xx flac 0.6435 gd76-07-16d1t04.flac
10:13.31 108206156 B --- -- ---xx flac 0.6189 gd76-07-16d1t05.flac
6:49.47 72258188 B --- -- ---xx flac 0.6637 gd76-07-16d1t06.flac
5:30.24 58268492 B --- -- ---xx flac 0.6538 gd76-07-16d1t07.flac
7:29.47 79314188 B --- -- ---xx flac 0.6437 gd76-07-16d1t08.flac
9:20.11 98809916 B --- -- ---xx flac 0.6436 gd76-07-16d1t09.flac
5:54.58 62582060 B --- -- ---xx flac 0.6797 gd76-07-16d1t10.flac
10:47.19 114175532 B --- -- ---xx flac 0.6856 gd76-07-16d1t11.flac
1:28.69 15685532 B --- -- ---xx flac 0.5612 gd76-07-16d2t01.flac
8:00.61 84815516 B --- -- ---xx flac 0.6736 gd76-07-16d2t02.flac
7:54.06 83627756 B --- -- ---xx flac 0.6671 gd76-07-16d2t03.flac
8:10.68 86595980 B --- -- ---xx flac 0.6389 gd76-07-16d2t04.flac
7:05.07 74986508 B --- -- ---xx flac 0.6697 gd76-07-16d2t05.flac
9:13.32 97624508 B --- -- ---xx flac 0.6291 gd76-07-16d2t06.flac
3:43.64 39487772 B --- -- ---xx flac 0.6459 gd76-07-16d2t07.flac
7:32.11 79758716 B --- -- ---xx flac 0.6628 gd76-07-16d2t08.flac
5:02.32 53348108 B --- -- ---xx flac 0.6621 gd76-07-16d2t09.flac
8:08.12 86111468 B --- -- ---xx flac 0.6708 gd76-07-16d2t10.flac
11:20.74 120126092 B --- -- ---xx flac 0.6195 gd76-07-16d2t11.flac
10:12.71 108123836 B --- -- ---xx flac 0.6921 gd76-07-16d3t01.flac
6:38.34 70287212 B --- -- ---xx flac 0.7019 gd76-07-16d3t02.flac
173:01.36 1831294128 B 0.6557 (24 files)
Checksumscd85bbfcafe6e3af0a5f7d2e3553646b *gd76-07-16d1t01.flac
9d9cb9c4be36ee5df219b6f69db75fdb *gd76-07-16d1t02.flac
b48b31efd98f40ad4365e7d58c5af2b3 *gd76-07-16d1t03.flac
eabf2bb17b4a1e2d3a7d3f58b7b0e405 *gd76-07-16d1t04.flac
4f88dcf78f83c4b5a0c0d0b96fdeb85d *gd76-07-16d1t05.flac
4267ba50b09a70f11607970a86d1818a *gd76-07-16d1t06.flac
9173d263602d8a550a1a7ab53ddd8b21 *gd76-07-16d1t07.flac
bf4e3957aa53019100205f8ad9b9966e *gd76-07-16d1t08.flac
da6a471a78fdc4e39bc175db11ead7f5 *gd76-07-16d1t09.flac
e0c98a9a37f928d8c30e01c28c42973b *gd76-07-16d1t10.flac
2aaccd933584cad454e249ee83d0c58f *gd76-07-16d1t11.flac
0ab43d6c8b11ac1a92bf85a0d23ff2ce *gd76-07-16d2t01.flac
8f3f86646193d103d9be3d9be638932f *gd76-07-16d2t02.flac
7eddcbf5789682898bd07ce112927270 *gd76-07-16d2t03.flac
3d4262af87456b73e6c9eb81cc87e3d0 *gd76-07-16d2t04.flac
ed3fdf81f633b918fe93a1c51b648391 *gd76-07-16d2t05.flac
70a639f5c9ecf42b4701fb05987211ef *gd76-07-16d2t06.flac
520a3c33ecb46791a1c5fccb7d2a4260 *gd76-07-16d2t07.flac
6cd9e7ded982246e25c0e9d031ea4d36 *gd76-07-16d2t08.flac
435221fec4dfa2b7d41519f9d7bd627e *gd76-07-16d2t09.flac
d1e4573e849af085d4e99740307f9fc2 *gd76-07-16d2t10.flac
efc9336096bbb26963995fb09ad41202 *gd76-07-16d2t11.flac
ca9d22cf9f2336267673e665955a360a *gd76-07-16d3t01.flac
be266fd6442e1f59ef795a3f5ddeac59 *gd76-07-16d3t02.flac
TypeGrateful Dead
Last seederLast activity 12:59 ago
Size1.118 GB (1200700476 Bytes)
Added2013-01-17 12:01:15
Views0
Hits678
Snatched457 times
Upped byWHARFRAT73
Num files
[See full list]
27 files
Peers
[See full list]
5 seeders, 0 leechers = 5 peers total

Add a comment

hotnanny 2013-01-17 13:23:20
I love this run of shows, apparently an enormous speaker box/subwoofer was put in the orchestra pit for extra oomph
gctaper64 2013-01-17 18:12:29
Hey you guys posted in order right up to 9/5/82 now you are back in the 70s we want 83-85 come on we have been waiting!
MattyE 2013-01-17 20:56:42
This show is good times.

Thanks!
varanasibull 2013-01-18 17:42:34
Thanks for all 4 shows. Cheers.
firemt66 2013-01-18 18:16:20
thanks
thewaymouth 2013-01-19 05:19:13
60s and 70s Dead is the place I want to head. Thanks for taking me there with all your kind care.

Add a comment


http://etree.org : http://db.etree.org : http://forums.etree.org : http://wiki.etree.org : Legal : RSS Feed

Contents designed & maintained by the etree.org volunteers
1998-2014, etree.org, except where noted. All Rights Reserved.
Read our terms of service and privacy guidelines