bt.etree.org
etree.org Community Bittorrent Tracker
ArtistGrateful Dead
Showgd76-07-12.ecm270.menke.113813.flac16 - By Request
Report this as
non-Trade-Friendly
Email us
Torrentgd76-07-12.ecm270.menke.113813.flac16.torrent (click to download)
Downloads asgd76-07-12.ecm270.menke.113813.flac16
Info hash5e91590439ce616be14953bb15b3984064c4040a
db linkhttp://db.etree.org/shn/113813 | Show | Source
DescriptionMOTB Release: 0167 16/44.1

Release Date: 2011-05-28

Band: Grateful Dead

Date: 1976-07-12 (Monday)

Venue: Orpheum Theater

Location: San Francisco, CA

Analog Audience Source: Aud Master Cassettes (MAC)

Medium Stock Brands: MAC = 3 x TDK SA C90

Analog Lineage: Sony ECM 270's => Sony TC-152SD >> MAC

Analog Sound Preservation: MAC >> Nakamichi CR7a => Korg MR-1000 >> DSF [1-bit 5.6448 MHz Stereo] >> Korg MR-1000 => Korg AudioGate >> WAV [24/96]

Taped By: Bob Menke

Transfer By: Bob Menke

Mastering By: Derek McCabe





Set 1:

Disc One:

d1t01: Music Never Stopped

d1t02: Brown-Eyed Women

d1t03: Cassidy

d1t04: Tennessee Jed

d1t05: Minglewood Blues

d1t06: Candyman

d1t07: Looks Like Rain

d1t08: Row Jimmy

d1t09: Lazy Lightning >
d1t10: Supplication

d1t11: Deal

d1t12: Promised Land



Set 2:

Disc Two:

d2t01: Sugaree

d2t02: Samson and Deliliah

d2t03: Help On The Way >

d2t04: Slipknot! >

d2t05: Franklin's Tower >*

d2t06: Dancing In The Streets



Disc Three(Set 2 cont):

d3t01: Wharf Rat >

d3t02: Drums >

d3t03: The Wheel >

d3t04: Around And Around

~encore~

d3t05: U.S. Blues



*sbd patch in Franklin's
***Taped from front row balcony





SHN TOOL:

length expanded size cdr WAVE problems fmt ratio filename
7:36.27 80501948 B --- -- ----- wav 1.0000 gd1976-07-12.aud.menke-motb.0167.d1t01.wav
5:50.07 61756508 B --- -- ----- wav 1.0000 gd1976-07-12.aud.menke-motb.0167.d1t02.wav
4:32.18 48023180 B --- -- ----- wav 1.0000 gd1976-07-12.aud.menke-motb.0167.d1t03.wav
9:06.70 96479084 B --- -- ----- wav 1.0000 gd1976-07-12.aud.menke-motb.0167.d1t04.wav
5:04.68 53785580 B --- -- ----- wav 1.0000 gd1976-07-12.aud.menke-motb.0167.d1t05.wav
7:21.50 77910044 B --- -- ----- wav 1.0000 gd1976-07-12.aud.menke-motb.0167.d1t06.wav
6:59.14 73944572 B --- -- ----- wav 1.0000 gd1976-07-12.aud.menke-motb.0167.d1t07.wav
10:32.64 111635372 B --- -- ----- wav 1.0000 gd1976-07-12.aud.menke-motb.0167.d1t08.wav
2:57.31 31295756 B --- -- ----- wav 1.0000 gd1976-07-12.aud.menke-motb.0167.d1t09.wav
5:29.35 58117964 B --- -- ----- wav 1.0000 gd1976-07-12.aud.menke-motb.0167.d1t10.wav
5:05.46 53910236 B --- -- ----- wav 1.0000 gd1976-07-12.aud.menke-motb.0167.d1t11.wav
4:49.15 51014924 B --- -- ----- wav 1.0000 gd1976-07-12.aud.menke-motb.0167.d1t12.wav
11:47.59 124853612 B --- -- ----- wav 1.0000 gd1976-07-12.aud.menke-motb.0167.d2t01.wav
7:30.35 79462364 B --- -- ----- wav 1.0000 gd1976-07-12.aud.menke-motb.0167.d2t02.wav
5:41.10 60175964 B --- -- ----- wav 1.0000 gd1976-07-12.aud.menke-motb.0167.d2t03.wav
6:26.16 68128076 B --- -- ----- wav 1.0000 gd1976-07-12.aud.menke-motb.0167.d2t04.wav
14:07.40 149504924 B --- -- ----- wav 1.0000 gd1976-07-12.aud.menke-motb.0167.d2t05.wav
12:09.44 128699132 B --- -- ----- wav 1.0000 gd1976-07-12.aud.menke-motb.0167.d2t06.wav
12:28.23 132001340 B --- -- ----- wav 1.0000 gd1976-07-12.aud.menke-motb.0167.d3t01.wav
4:20.16 45901676 B --- -- ----- wav 1.0000 gd1976-07-12.aud.menke-motb.0167.d3t02.wav
4:49.25 51038444 B --- -- ----- wav 1.0000 gd1976-07-12.aud.menke-motb.0167.d3t03.wav
8:14.18 87183980 B --- -- ----- wav 1.0000 gd1976-07-12.aud.menke-motb.0167.d3t04.wav
8:13.21 87014636 B --- -- ----- wav 1.0000 gd1976-07-12.aud.menke-motb.0167.d3t05.wav
171:14.02 1812339316 B 1.0000 (23 files)
Checksums8ae811f42cf35d0f8cc7dfc25d2c6d7e *gd1976-07-12.aud.menke-motb.0167.d1t01.flac
dee80d71395a06050cee381c0afb53b1 *gd1976-07-12.aud.menke-motb.0167.d1t02.flac
9967fc370953ed2b4ba176ad699dda32 *gd1976-07-12.aud.menke-motb.0167.d1t03.flac
849756d8016801659d64ee3a1a389a5d *gd1976-07-12.aud.menke-motb.0167.d1t04.flac
94c0c8c753e34e3225f34f7e70cc0090 *gd1976-07-12.aud.menke-motb.0167.d1t05.flac
c7fcaa08da1e646fab9978bc30063aaf *gd1976-07-12.aud.menke-motb.0167.d1t06.flac
72d4bbec4d66a1155043f2f0bcba9325 *gd1976-07-12.aud.menke-motb.0167.d1t07.flac
3f6a0004c9562483004595d8d69c2e44 *gd1976-07-12.aud.menke-motb.0167.d1t08.flac
a69d110cd8f2d619a9a5a7333faccac6 *gd1976-07-12.aud.menke-motb.0167.d1t09.flac
c7847fb2b733fed4bf3a07bbcc114eb6 *gd1976-07-12.aud.menke-motb.0167.d1t10.flac
765b8b7f588aee1098df91964f748583 *gd1976-07-12.aud.menke-motb.0167.d1t11.flac
3e22a54ccb383bb832612ae490b0c555 *gd1976-07-12.aud.menke-motb.0167.d1t12.flac
84cf46a275b3f7e22ccb3889758945fa *gd1976-07-12.aud.menke-motb.0167.d2t01.flac
9abe5a61d16ceab9dd1cb8c0c54115a3 *gd1976-07-12.aud.menke-motb.0167.d2t02.flac
fbb86c25b428451dff68a64adf710a91 *gd1976-07-12.aud.menke-motb.0167.d2t03.flac
290772d9a30299638d5cad8237215f6f *gd1976-07-12.aud.menke-motb.0167.d2t04.flac
bd468be3c05be17876ddd8af6e0e9990 *gd1976-07-12.aud.menke-motb.0167.d2t05.flac
b7adf44539a889637c3f29eb72cc0a49 *gd1976-07-12.aud.menke-motb.0167.d2t06.flac
abb51c9b0a2e2c90981281777e81ab35 *gd1976-07-12.aud.menke-motb.0167.d3t01.flac
aa43526c68fe33511825dcf33243e896 *gd1976-07-12.aud.menke-motb.0167.d3t02.flac
655042d8f84cb69129c0e7088a8ee006 *gd1976-07-12.aud.menke-motb.0167.d3t03.flac
d1b0fbf9d9990ec03b180123f6b963f1 *gd1976-07-12.aud.menke-motb.0167.d3t04.flac
e036b484678742da8f3440a3a9e76cba *gd1976-07-12.aud.menke-motb.0167.d3t05.flac
TypeGrateful Dead
Last seederLast activity 15:11 ago
Size1.028 GB (1103492109 Bytes)
Added2013-01-17 17:05:36
Views0
Hits294
Snatched155 times
Upped byWHARFRAT73
Num files27 files
File List
[Hide list]
filenamesizemd5
gd1976-07-12.aud.menke-motb.0167.d2t05.flac87.96 MBN/A
gd1976-07-12.aud.menke-motb.0167.d2t06.flac85.60 MBN/A
gd1976-07-12.aud.menke-motb.0167.d3t01.flac81.63 MBN/A
gd1976-07-12.aud.menke-motb.0167.d2t01.flac68.58 MBN/A
gd1976-07-12.aud.menke-motb.0167.d1t08.flac59.09 MBN/A
gd1976-07-12.aud.menke-motb.0167.d3t04.flac55.32 MBN/A
gd1976-07-12.aud.menke-motb.0167.d3t05.flac54.34 MBN/A
gd1976-07-12.aud.menke-motb.0167.d1t04.flac53.00 MBN/A
gd1976-07-12.aud.menke-motb.0167.d2t02.flac45.93 MBN/A
gd1976-07-12.aud.menke-motb.0167.d1t01.flac43.79 MBN/A
gd1976-07-12.aud.menke-motb.0167.d1t06.flac41.84 MBN/A
gd1976-07-12.aud.menke-motb.0167.d1t07.flac39.97 MBN/A
gd1976-07-12.aud.menke-motb.0167.d2t04.flac38.84 MBN/A
gd1976-07-12.aud.menke-motb.0167.d2t03.flac33.89 MBN/A
gd1976-07-12.aud.menke-motb.0167.d1t10.flac33.62 MBN/A
gd1976-07-12.aud.menke-motb.0167.d1t02.flac31.77 MBN/A
gd1976-07-12.aud.menke-motb.0167.d3t03.flac31.47 MBN/A
gd1976-07-12.aud.menke-motb.0167.d1t11.flac31.38 MBN/A
gd1976-07-12.aud.menke-motb.0167.d1t05.flac30.48 MBN/A
gd1976-07-12.aud.menke-motb.0167.d3t02.flac29.85 MBN/A
gd1976-07-12.aud.menke-motb.0167.d1t12.flac28.83 MBN/A
gd1976-07-12.aud.menke-motb.0167.d1t03.flac27.33 MBN/A
gd1976-07-12.aud.menke-motb.0167.d1t09.flac17.84 MBN/A
gd1976-07-12.113813.txt3.9 kBN/A
shntool.txt2.6 kBN/A
gd1976-07-12.113813.md51.8 kBN/A
gd1976-07-12.113813.ffp1.8 kBN/A
Peers
[See full list]
2 seeders, 0 leechers = 2 peers total

Add a comment

seedin_for_jesus 2013-01-19 20:27:15
Thanks...now I can take it off the list...gotta few more to find....
badbob 2013-01-20 01:23:24
For the sake of complete disclosure there are matrix versions at 16 and 24 bit as well as an aud 24 bit. This was put up without my approval. It was on the archive as read only and the seeder used his position to get the real deal. Its a recording I'm proud of. It wasn't meant for mass consumption. But here it is. Enjoy and remember all the other nights have lovingly edited in the same way. Enjoy the small and hollow victory.

Add a comment


http://etree.org : http://db.etree.org : http://forums.etree.org : http://wiki.etree.org : Legal : RSS Feed

Contents designed & maintained by the etree.org volunteers
1998-2014, etree.org, except where noted. All Rights Reserved.
Read our terms of service and privacy guidelines