bt.etree.org
etree.org Community Bittorrent Tracker
ArtistGrateful Dead
Showgd82-09-09.123191.beyerM160.streeter.miller.t-flac16
Report this as
non-Trade-Friendly
Email us
Torrentgd82-09-09.123191.beyerM160.streeter.miller.t-flac16.torrent (click to download)
Downloads asgd82-09-09.123191.beyerM160.streeter.miller.t-flac16
Info hashf4c80a626056685427537e13c66538bce0640328
db linkhttp://db.etree.org/shn/123191 | Show | Source
DescriptionThis is a tagged version of shnid: 123191

Grateful Dead
September 9, 1982
Saenger Theatre
New Orleans, LA

Recording Info:
Beyer M160 -> Cassette Master (Sony TC-D5M/TDK MA-C90)

Transfer Info:
Cassette Master (Sony TC-K677ES) -> Sound Devices 744T (24bit/48k) ->
Adobe Audition v3.0 -> Samplitude Professional v11.2.1 -> FLAC/16
(3 Discs Audio / 1 DVD FLAC)

All Transfers and Mastering By Charlie Miller
charliemiller87@earthlink.net
December 21, 2012

Notes:
-- Set 2 is seamless
-- The first 33 seconds of Uncle John's Band are very hissy due to low levels
-- The show will fit onto 2 discs if you move encore to end of Set 1
-- The levels were a mess and it's not perfect, but it'll do
-- Thanks to Frank Streeter for lending me his masters
-- Thanks to Joe B. Jones for his help with the pitch correction
________________________________________________________________________________________

--Set 1--
101-d1t01 - Tuning
102-d1t02 - Mississippi Half-Step Uptown Toodeloo ->
103-d1t03 - Franklin's Tower ->
104-d1t04 - Feel Like a Stranger
105-d1t05 - West L.A. Fadeaway
106-d1t06 - Mama Tried ->
107-d1t07 - Mexicali Blues
108-d1t08 - Althea

--Set 2--
201-d2t01 - Uncle John's Band ->
202-d2t02 - Samson & Delilah ->
203-d2t03 - Uncle John's Band ->
204-d2t04 - Estimated Prophet ->
205-d2t05 - Eyes of the World ->
206-d2t06 - Drums ->
207-d2t07 - Space ->
208-d2t08 - The Wheel ->
209-d2t09 - The Other One ->
210-d2t10 - Wharf Rat ->
211-d2t11 - Good Lovin'

--Encore--
212-d3t01 - Keep Your Day Job ->
213-d3t02 - Johnny B. Goode
________________________________________________________________________________________

Tagging notes:
Show information is embedded within the header of each flac file.
It will display on any player capable of directly playing flac
files. If converted to wav during processing, all tags will be
stripped, however audio data will remain unaffected. If you must
transcode to a lossy format, do so directly Flac > Lossy.
Use ffp to validate audio integrity.
Md5 values will change if tagging is altered.
B. Proctor 12-26-12
________________________________________________________________________________________

SHNTOOL OUTPUT:
length expanded size cdr WAVE problems fmt ratio filename
0:32.00 5644844 B --- -- ---xx flac 0.5684 gd82-09-09d1t01.flac
7:10.09 75873212 B --- -- ---xx flac 0.6533 gd82-09-09d1t02.flac
7:34.50 80203244 B --- -- ---xx flac 0.6527 gd82-09-09d1t03.flac
7:24.60 78462764 B --- -- ---xx flac 0.5997 gd82-09-09d1t04.flac
8:14.32 87216908 B --- -- ---xx flac 0.5811 gd82-09-09d1t05.flac
2:24.22 25453388 B --- -- ---xx flac 0.6637 gd82-09-09d1t06.flac
4:49.45 51085484 B --- -- ---xx flac 0.6613 gd82-09-09d1t07.flac
8:00.09 84693212 B --- -- ---xx flac 0.6546 gd82-09-09d1t08.flac
6:24.05 67749404 B --- -- ---xx flac 0.6034 gd82-09-09d2t01.flac
6:07.26 64799996 B --- -- ---xx flac 0.6793 gd82-09-09d2t02.flac
1:45.35 18604364 B --- -- ---xx flac 0.6643 gd82-09-09d2t03.flac
11:13.29 118785452 B --- -- ---xx flac 0.6624 gd82-09-09d2t04.flac
8:38.42 91474028 B --- -- ---xx flac 0.6779 gd82-09-09d2t05.flac
6:16.46 66434636 B --- -- ---xx flac 0.5487 gd82-09-09d2t06.flac
5:09.73 54679340 B --- -- ---xx flac 0.5394 gd82-09-09d2t07.flac
5:47.74 61384892 B --- -- ---xx flac 0.6320 gd82-09-09d2t08.flac
6:49.64 72298172 B --- -- ---xx flac 0.6482 gd82-09-09d2t09.flac
9:34.45 101359484 B --- -- ---xx flac 0.6279 gd82-09-09d2t10.flac
113:57.66 1206202824 B 0.6319 (18 files)
Checksumsgd82-09-09d1t01.flac:7020ad861245bd453ef1c1cde6bbff73
gd82-09-09d1t02.flac:1456ad335adc4566b31eefe0027761a7
gd82-09-09d1t03.flac:65f983742712f31e217d0a47c68c9f34
gd82-09-09d1t04.flac:bf0017221870b035733d3aa47dffb9c1
gd82-09-09d1t05.flac:4b1526dee4a74b59c71eb4917468fb15
gd82-09-09d1t06.flac:12a1d594b614bcc72f6b82837ff48a2c
gd82-09-09d1t07.flac:b4236d8bd3f43f217d8493a6f849a62a
gd82-09-09d1t08.flac:19928561afc0dd8fbe052d54a1a2e6d9
gd82-09-09d2t01.flac:8f1e1077f84761ec33fcf55d7365f95f
gd82-09-09d2t02.flac:9951552232a604d5e74a9ba175b871b6
gd82-09-09d2t03.flac:354e227e0c3293b8ed7eda11d1d48a59
gd82-09-09d2t04.flac:e32b87349664c660d00b2cc3b5f7bc5b
gd82-09-09d2t05.flac:746e3ea3065616c0fa61f13fc7fcec5b
gd82-09-09d2t06.flac:70a8c6fa6d17f53070ccdc495aa4dcae
gd82-09-09d2t07.flac:4951fb2b6d05a23b005780510e1911d7
gd82-09-09d2t08.flac:24e9c8925db11efbfa39f1b23aeb4095
gd82-09-09d2t09.flac:b84cbfc2f9bb44fa6a86feb0566957b5
gd82-09-09d2t10.flac:4693ffb69df54dffb98ba3b2d4847ac1
gd82-09-09d2t11.flac:59f14be8bfdc04a74fc240f920562b48
gd82-09-09d3t01.flac:dcf1fcb61a1ccf02c013ab69780f46df
gd82-09-09d3t02.flac:79872c699f4f1de7a6b588722ccee976
TypeGrateful Dead
Last seederLast activity 8:33 ago
Size840.15 MB (880965773 Bytes)
Added2013-01-18 06:34:05
Views0
Hits331
Snatched163 times
Upped bySpiralLightofVenus
Num files24 files
File List
[Hide list]
filenamesizemd5
gd82-09-09.123191.beyerM160.streeter.miller.t-flac16/gd82-09-09.123191.tagged.md51.3 kBN/A
gd82-09-09.123191.beyerM160.streeter.miller.t-flac16/gd82-09-09.123191.txt3.9 kBN/A
gd82-09-09.123191.beyerM160.streeter.miller.t-flac16/gd82-09-09.ffp1.1 kBN/A
gd82-09-09.123191.beyerM160.streeter.miller.t-flac16/gd82-09-09d1t01.flac3.06 MBN/A
gd82-09-09.123191.beyerM160.streeter.miller.t-flac16/gd82-09-09d1t02.flac47.27 MBN/A
gd82-09-09.123191.beyerM160.streeter.miller.t-flac16/gd82-09-09d1t03.flac49.93 MBN/A
gd82-09-09.123191.beyerM160.streeter.miller.t-flac16/gd82-09-09d1t04.flac44.87 MBN/A
gd82-09-09.123191.beyerM160.streeter.miller.t-flac16/gd82-09-09d1t05.flac48.34 MBN/A
gd82-09-09.123191.beyerM160.streeter.miller.t-flac16/gd82-09-09d1t06.flac16.11 MBN/A
gd82-09-09.123191.beyerM160.streeter.miller.t-flac16/gd82-09-09d1t07.flac32.22 MBN/A
gd82-09-09.123191.beyerM160.streeter.miller.t-flac16/gd82-09-09d1t08.flac52.87 MBN/A
gd82-09-09.123191.beyerM160.streeter.miller.t-flac16/gd82-09-09d2t01.flac38.99 MBN/A
gd82-09-09.123191.beyerM160.streeter.miller.t-flac16/gd82-09-09d2t02.flac41.98 MBN/A
gd82-09-09.123191.beyerM160.streeter.miller.t-flac16/gd82-09-09d2t03.flac11.79 MBN/A
gd82-09-09.123191.beyerM160.streeter.miller.t-flac16/gd82-09-09d2t04.flac75.03 MBN/A
gd82-09-09.123191.beyerM160.streeter.miller.t-flac16/gd82-09-09d2t05.flac59.14 MBN/A
gd82-09-09.123191.beyerM160.streeter.miller.t-flac16/gd82-09-09d2t06.flac34.76 MBN/A
gd82-09-09.123191.beyerM160.streeter.miller.t-flac16/gd82-09-09d2t07.flac28.13 MBN/A
gd82-09-09.123191.beyerM160.streeter.miller.t-flac16/gd82-09-09d2t08.flac37.00 MBN/A
gd82-09-09.123191.beyerM160.streeter.miller.t-flac16/gd82-09-09d2t09.flac44.69 MBN/A
gd82-09-09.123191.beyerM160.streeter.miller.t-flac16/gd82-09-09d2t10.flac60.69 MBN/A
gd82-09-09.123191.beyerM160.streeter.miller.t-flac16/gd82-09-09d2t11.flac54.11 MBN/A
gd82-09-09.123191.beyerM160.streeter.miller.t-flac16/gd82-09-09d3t01.flac33.82 MBN/A
gd82-09-09.123191.beyerM160.streeter.miller.t-flac16/gd82-09-09d3t02.flac25.35 MBN/A
Peers
[See full list]
1 seeder, 0 leechers = 1 peer total

No comments yet

Add a comment


http://etree.org : http://db.etree.org : http://forums.etree.org : http://wiki.etree.org : Legal : RSS Feed

Contents designed & maintained by the etree.org volunteers
1998-2014, etree.org, except where noted. All Rights Reserved.
Read our terms of service and privacy guidelines