bt.etree.org
etree.org Community Bittorrent Tracker
ArtistGrateful Dead
Showgd77-05-09.sbd.miller.123480.flac16
Report this as
non-Trade-Friendly
Email us
Torrentgd77-05-09.sbd.miller.123480.flac16.torrent (click to download)
Downloads asgd77-05-09.sbd.miller.123480.flac16
Info hashe2711cd0090629600123e6624cd1f0c2fc37104f
db linkhttp://db.etree.org/shn/123480 | Show | Source
DescriptionGrateful Dead - May 9, 1977
War Memorial - Buffalo, NY

Recording Info:
SBD -> Master Reel (DBX-1 Encoded) -> Sony PCM501ES (44.055k)

Transfer Info:
Sony PCM501ES (Analog Out) -> DBX-1 Decoder> Sony PCM501ES (Analog In) ->
Dat (48k/Analog In) -> Sound Forge -> SHN

Mastering Info:
SHN -> FLAC -> Samplitude Professional v11.2.1 -> FLAC
(3 Discs Audio / 1 DVD FLAC)

Original Mastering By Charlie Connor
Remastered By Charlie Miller
charliemiller87@earthlink.net
January 17, 2013

Patch Info:
Sony ECM-33P -> Cassette Master -> Reel -> Dat -> CD (shnid=8036) supplies:
The Music Never Stopped (6:34 - 7:06)
Not Fade Away (1:42 - 2:14)

Notes:
-- All disc changes are seamless
-- This is a remaster of shnid=8304
-- The patches aren't perfect but they're a lot better
-- Thanks to everyone who worked on this before me

Set 1:
d1t01 - Help On The Way ->
d1t02 - Slipknot! ->
d1t03 - Franklin's Tower
d1t04 - Cassidy
d1t05 - Brown Eyed Women
d1t06 - Mexicali Blues
d1t07 - Tennessee Jed
d1t08 - Big River
d1t09 - Peggy-O
d2t01 - Sunrise
d2t02 - The Music Never Stopped

Set 2:
d2t03 - Bertha ->
d2t04 - Good Lovin'
d2t05 - Ship Of Fools
d3t01 - Estimated Prophet ->
d3t02 - The Other One ->
d3t03 - Drums ->
d3t04 - Not Fade Away ->
d3t05 - Comes A Time ->
d3t06 - Sugar Magnolia

Encore:
d3t07 - Uncle John's Band


SHNTOOL OUTPUT:
length expanded size cdr WAVE problems fmt ratio filename
6:30.24 68852492 B --- -- ---xx flac 0.5127 gd77-05-09d1t01.flac
7:04.16 74831276 B --- -- ---xx flac 0.5568 gd77-05-09d1t02.flac
17:28.70 185031884 B --- -- ---xx flac 0.4869 gd77-05-09d1t03.flac
6:32.32 69224108 B --- -- ---xx flac 0.4985 gd77-05-09d1t04.flac
6:46.19 71663132 B --- -- ---xx flac 0.4983 gd77-05-09d1t05.flac
4:39.16 49253276 B --- -- ---xx flac 0.5327 gd77-05-09d1t06.flac
10:26.14 110459372 B --- -- ---xx flac 0.4953 gd77-05-09d1t07.flac
8:30.56 90095756 B --- -- ---xx flac 0.5398 gd77-05-09d1t08.flac
9:45.50 103311644 B --- -- ---xx flac 0.4590 gd77-05-09d1t09.flac
4:04.55 43171004 B --- -- ---xx flac 0.4916 gd77-05-09d2t01.flac
8:07.44 86010332 B --- -- ---xx flac 0.5755 gd77-05-09d2t02.flac
7:43.24 81729692 B --- -- ---xx flac 0.5280 gd77-05-09d2t03.flac
7:22.35 78051164 B --- -- ---xx flac 0.5256 gd77-05-09d2t04.flac
10:05.05 106733804 B --- -- ---xx flac 0.4590 gd77-05-09d2t05.flac
9:52.19 104473532 B --- -- ---xx flac 0.5312 gd77-05-09d3t01.flac
6:17.27 66566348 B --- -- ---xx flac 0.5811 gd77-05-09d3t02.flac
3:29.66 37022876 B --- -- ---xx flac 0.4577 gd77-05-09d3t03.flac
10:27.25 110661644 B --- -- ---xx flac 0.5558 gd77-05-09d3t04.flac
11:32.25 122127644 B --- -- ---xx flac 0.4944 gd77-05-09d3t05.flac
11:30.69 121878332 B --- -- ---xx flac 0.5283 gd77-05-09d3t06.flac
9:09.62 96989468 B --- -- ---xx flac 0.5498 gd77-05-09d3t07.flac
177:27.03 1878138780 B 0.5159 (21 files)
Checksums3d079409d7da7dcd6b57ed3780e52622 *gd77-05-09d1t01.flac
f4d78cd2034b460bb6ce4943d32f3ebb *gd77-05-09d1t02.flac
19887f111a4f338d0ffe296f44f25d64 *gd77-05-09d1t03.flac
170daf20f532ff15b15c749017fb2f3b *gd77-05-09d1t04.flac
5d014d4644b0198b91a8589953d9894a *gd77-05-09d1t05.flac
a514fe42ef8c0f05f4e94bfef5a4dfad *gd77-05-09d1t06.flac
498b0db7c553218c6fc89d8253bb966f *gd77-05-09d1t07.flac
b4f4ed5616abc957d09af6c3158fb759 *gd77-05-09d1t08.flac
e24f3506dbfbdb0a1e07597e6d50e58a *gd77-05-09d1t09.flac
c17b8d8ad71f6df46113872a7d4f0eea *gd77-05-09d2t01.flac
2655aebd60f9226bf11395597901ff6e *gd77-05-09d2t02.flac
64036aa42688570030a4d532fb679c6b *gd77-05-09d2t03.flac
dfd7c709fc43c9a7f82ba8c7f920efb3 *gd77-05-09d2t04.flac
6152446927beb5ddb9f3e47fc2221e36 *gd77-05-09d2t05.flac
e9a8bce8027a2bc88e6add42b78c076e *gd77-05-09d3t01.flac
19a902da23106c0d3593a8562ea1fc3a *gd77-05-09d3t02.flac
0b3c2bbece1e05bbf2b5d9d792c233a2 *gd77-05-09d3t03.flac
9e8f173681ac72aadd7068eade58ecc3 *gd77-05-09d3t04.flac
0ed46a504d43e37459445d72d4a6d132 *gd77-05-09d3t05.flac
f3ca0548e4041df6afce74b4f063a5de *gd77-05-09d3t06.flac
07d0aeed2101931ec21529fa2b432f75 *gd77-05-09d3t07.flac
TypeGrateful Dead
Last seederLast activity 31:14 ago
Size924.03 MB (968914316 Bytes)
Added2013-01-18 09:28:01
Views0
Hits2275
Snatched1593 times
Upped byWHARFRAT73
Num files24 files
File List
[Hide list]
filenamesizemd5
gd77-05-09d1t03.flac85.93 MBN/A
gd77-05-09d3t06.flac61.40 MBN/A
gd77-05-09d3t04.flac58.66 MBN/A
gd77-05-09d3t05.flac57.59 MBN/A
gd77-05-09d3t01.flac52.92 MBN/A
gd77-05-09d1t07.flac52.18 MBN/A
gd77-05-09d3t07.flac50.85 MBN/A
gd77-05-09d2t02.flac47.21 MBN/A
gd77-05-09d2t05.flac46.73 MBN/A
gd77-05-09d1t08.flac46.38 MBN/A
gd77-05-09d1t09.flac45.23 MBN/A
gd77-05-09d2t03.flac41.15 MBN/A
gd77-05-09d1t02.flac39.74 MBN/A
gd77-05-09d2t04.flac39.12 MBN/A
gd77-05-09d3t02.flac36.89 MBN/A
gd77-05-09d1t05.flac34.05 MBN/A
gd77-05-09d1t01.flac33.66 MBN/A
gd77-05-09d1t04.flac32.91 MBN/A
gd77-05-09d1t06.flac25.02 MBN/A
gd77-05-09d2t01.flac20.24 MBN/A
gd77-05-09d3t03.flac16.16 MBN/A
gd77-05-09.123480.txt3.3 kBN/A
gd77-05-09.md51.1 kBN/A
gd77-05-09.ffp1.1 kBN/A
Peers
[See full list]
11 seeders, 0 leechers = 11 peers total

Add a comment

<< Prev      Next >>
1 - 20 | 21 - 25

dskglf 2013-01-23 21:29:22
Many thanks, these were the best days of my life...I felt it would never end. I put one of these shows on, close my eyes and I'm there again, maybe that's a gift from Owlsley?
charlie miller 2013-01-25 21:45:56
@stephenr

I fixed the patches, cleaned up some flows, removed some silence at disc changes, fixed the dc offset, fixed the levels, cleaned up tape pauses and sprinkled some magic pixie dust on it :)
chigi22 2013-01-25 22:16:33
Blasting Estimated and writing this: sounds f'in PHENOMENAL... as one would expect! Many thanks!
MushroomMan86 2013-01-27 10:09:42
nothing like your magic pixie dust Charlie

Thanks for everything!
jbr1230 2013-05-18 17:26:42
Great work, as usual, from Mr. Miller. The Aud never did have great acoustics, so every little bit helps.

1 - 20 | 21 - 25
<< Prev      Next >>

Add a comment


http://etree.org : http://db.etree.org : http://forums.etree.org : http://wiki.etree.org : Legal : RSS Feed

Contents designed & maintained by the etree.org volunteers
1998-2014, etree.org, except where noted. All Rights Reserved.
Read our terms of service and privacy guidelines