bt.etree.org
etree.org Community Bittorrent Tracker
ArtistDrive-By Truckers
ShowDrive-By Truckers 01/17/2013 40 Watt Club Athens, GA neumann ak40's
Report this as
non-Trade-Friendly
Email us
Torrentdbt2013-01-17.ak40.flac16.torrent (click to download)
Downloads asdbt2013-01-17.ak40.flac16
Info hash26bee7e7ddd27c30c7c197aed6a15910f63550dd
db linkhttp://db.etree.org/shn/128451 | Show | Source
DescriptionDrive-By Truckers
01/17/2013
40 Watt Club
Athens, GA

source: Neumann ak40 > lc3 > km100 (din) > Lunatec V3 > Edirol R-44 @ 24/48
location: inside sbd cage just LOC
transfer: SDHC card > PC > wavelab 6.1 > cd wave > traders little helper (flac level 8)

all editing (fades, Crystal Resampler (high), dither w/ iZotope Ozone 5) done in wavelab 6.1

*16bit/44.1khz fileset*

recorded and transferred by Gordon Wilson

A Team Dirty South Recording

01. Intro
02. Puttin' People On The Moon
03. Marry Me
04. Play It All Night Long
05. Gravity's Gone
06. Heathens
07. A Ghost To Most
08. Mercy Buckets
09. 3 Dimes Down
10. That Man I Shot
11. Where The Devil Don't Stay
12. The Night G.G. Allin Came To Town
13. Uncle Frank
14. The Company I Keep
15. Women Without Whiskey
16. Tornadoes
17. Self-Destructive Zones
18. Hell No I Ain't Happy

encore:
19. Birthday Boy
20. Girls Who Smoke
21. Zip City
22. Let There Be Rock
23. Shut Up And Get On The Plane
24. Buttholeville >
25. State Trooper


shntool 3.0.4
Copyright (C) 2000-2007 Jason Jordan <shnutils@freeshell.org>

length expanded size cdr WAVE problems fmt ratio filename
0:56.03 9885500 B --- -- ---xx flac 0.4123 dbt2013-01-17t01.flac
7:15.52 76856348 B --- -- ---xx flac 0.4823 dbt2013-01-17t02.flac
5:34.26 58978796 B --- -- ---xx flac 0.5114 dbt2013-01-17t03.flac
6:00.27 63567548 B --- -- ---xx flac 0.4816 dbt2013-01-17t04.flac
4:44.50 50215244 B --- -- ---xx flac 0.4532 dbt2013-01-17t05.flac
5:22.62 56946668 B --- -- ---xx flac 0.4250 dbt2013-01-17t06.flac
6:02.26 63917996 B --- -- ---xx flac 0.4511 dbt2013-01-17t07.flac
5:23.58 57113660 B --- -- ---xx flac 0.4609 dbt2013-01-17t08.flac
3:05.04 32643452 B --- -- ---xx flac 0.4942 dbt2013-01-17t09.flac
5:09.42 54606428 B --- -- ---xx flac 0.4963 dbt2013-01-17t10.flac
7:35.43 80363180 B --- -- ---xx flac 0.4655 dbt2013-01-17t11.flac
5:30.29 58280252 B --- -- ---xx flac 0.4235 dbt2013-01-17t12.flac
5:12.01 55039196 B --- -- ---xx flac 0.4910 dbt2013-01-17t13.flac
7:49.03 82738700 B --- -- ---xx flac 0.4613 dbt2013-01-17t14.flac
4:36.34 48766412 B --- -- ---xx flac 0.4702 dbt2013-01-17t15.flac
5:58.47 63261788 B --- -- ---xx flac 0.4388 dbt2013-01-17t16.flac
3:46.46 39974636 B --- -- ---xx flac 0.5142 dbt2013-01-17t17.flac
16:59.47 179862188 B --- -- ---xx flac 0.4296 dbt2013-01-17t18.flac
3:29.53 36992300 B --- -- ---xx flac 0.4953 dbt2013-01-17t19.flac
4:01.46 42620636 B --- -- ---xx flac 0.5176 dbt2013-01-17t20.flac
5:23.03 56984300 B --- -- ---xx flac 0.4869 dbt2013-01-17t21.flac
7:18.48 77376140 B --- -- ---xx flac 0.4838 dbt2013-01-17t22.flac
5:53.17 62309228 B --- -- ---xx flac 0.5268 dbt2013-01-17t23.flac
3:43.70 39501884 B --- -- ---xx flac 0.4839 dbt2013-01-17t24.flac
6:01.21 63729836 B --- -- ---xx flac 0.4783 dbt2013-01-17t25.flac
142:54.33 1512532316 B 0.4701 (25 files)
Checksums; flac fingerprint file generated by Trader's Little Helper
; generated on January 18, 2013, at 13:37:07

dbt2013-01-17t01.flac:5d4b6c4729abd507d2b3216b5fbccce2
dbt2013-01-17t02.flac:520d38718835e9124a8081835cebd6f4
dbt2013-01-17t03.flac:ed9a57f275afeab9005a1318a2b8467e
dbt2013-01-17t04.flac:5a31f1ea414d7e7262445dedfb73aea9
dbt2013-01-17t05.flac:913cf456c4cbed81209dddaf5a13b0de
dbt2013-01-17t06.flac:6f2d298079bf774675a7e54907419c64
dbt2013-01-17t07.flac:18f723bb9d44f4c852c7dae2f9b1a755
dbt2013-01-17t08.flac:ca184e76fd017e7c845be7ef4ba411c6
dbt2013-01-17t09.flac:80a63a83a715b111a8f79f3dda98a61e
dbt2013-01-17t10.flac:7dcb6dfb8e31eb4b1b8830c76d660d1f
dbt2013-01-17t11.flac:8b2fca25846e27124108ab03ed5fbf34
dbt2013-01-17t12.flac:59eb43798baa89d485cb5ab49f81726f
dbt2013-01-17t13.flac:39a9cb0c80298c685c31f180c8941225
dbt2013-01-17t14.flac:ec75b3367ce989f014131e3f6c19a4eb
dbt2013-01-17t15.flac:6b908235e0436233606c738455212038
dbt2013-01-17t16.flac:622baa5e062283056dc11c5d92703e62
dbt2013-01-17t17.flac:857e55b386984c4dc22ef594a66a5bca
dbt2013-01-17t18.flac:e2fc66375cbfc700dd0fae2476d0f599
dbt2013-01-17t19.flac:301271efef99c39abada0daa13f98b79
dbt2013-01-17t20.flac:463da5c6f5a8d873e5202670aafe5761
dbt2013-01-17t21.flac:743f2b57c2971916e011ccb5e1f51c67
dbt2013-01-17t22.flac:fb1d7e10b9233f449c1538ddc303d52d
dbt2013-01-17t23.flac:9c32ce8072d6deed370bccc198204eab
dbt2013-01-17t24.flac:609743373024e196ff6b15ed8c1c9e98
dbt2013-01-17t25.flac:ec5ec9e8061ebd7369dc631b05f2d354
TypeDrive-By Truckers
Last seederLast activity 4 days, 14:27:09 ago
Size678.13 MB (711068229 Bytes)
Added2013-01-18 13:47:35
Views0
Hits589
Snatched146 times
Upped bydatdork
Num files27 files
File List
[Hide list]
filenamesizemd5
dbt2013-01-17t18.flac73.69 MBN/A
dbt2013-01-17t14.flac36.40 MBN/A
dbt2013-01-17t22.flac35.70 MBN/A
dbt2013-01-17t11.flac35.68 MBN/A
dbt2013-01-17t02.flac35.35 MBN/A
dbt2013-01-17t23.flac31.31 MBN/A
dbt2013-01-17t04.flac29.20 MBN/A
dbt2013-01-17t25.flac29.07 MBN/A
dbt2013-01-17t03.flac28.76 MBN/A
dbt2013-01-17t07.flac27.50 MBN/A
dbt2013-01-17t16.flac26.48 MBN/A
dbt2013-01-17t21.flac26.46 MBN/A
dbt2013-01-17t10.flac25.84 MBN/A
dbt2013-01-17t13.flac25.77 MBN/A
dbt2013-01-17t08.flac25.11 MBN/A
dbt2013-01-17t12.flac23.54 MBN/A
dbt2013-01-17t06.flac23.08 MBN/A
dbt2013-01-17t15.flac21.87 MBN/A
dbt2013-01-17t05.flac21.70 MBN/A
dbt2013-01-17t20.flac21.04 MBN/A
dbt2013-01-17t17.flac19.60 MBN/A
dbt2013-01-17t24.flac18.23 MBN/A
dbt2013-01-17t19.flac17.47 MBN/A
dbt2013-01-17t09.flac15.39 MBN/A
dbt2013-01-17t01.flac3.89 MBN/A
dbt2013-01-17.ak40.flac16.txt3.4 kBN/A
dbt2013-01-17.ak40.flac16.ffp1.5 kBN/A
Peers
[See full list]
1 seeder, 0 leechers = 1 peer total

Add a comment

Blues_Ken 2013-01-18 14:00:48
Thank you Gordon
redmule82600 2013-01-18 15:43:05
Thank You Much !!! John Neff left. New guitar sounds good
shoam1 2013-01-18 17:34:02
can you upload the thundercrack set?


ya know ....... RIP Craig
buncombe 2013-01-18 21:04:34
RIP Craig, what a drag. had a lot of good conversations with him over the years. He never failed to ask me every time, "what's a Carolina boy doing out in California?" Last time I saw him he was on stage jamming out with the band on, I kid you not, People Who Died
buncombe 2013-01-18 21:04:57
who is the new guitar?

Add a comment


http://etree.org : http://db.etree.org : http://forums.etree.org : http://wiki.etree.org : Legal : RSS Feed

Contents designed & maintained by the etree.org volunteers
1998-2014, etree.org, except where noted. All Rights Reserved.
Read our terms of service and privacy guidelines