bt.etree.org
etree.org Community Bittorrent Tracker
ArtistClub d'Elf
ShowClub d'Elf Lizard Lounge Cambridge, Massachusetts 1/18/2013 (Schoeps CCM4V'S FOB)
Report this as
non-Trade-Friendly
Email us
Torrentclubdelf2013-01-18.flac16.torrent (click to download)
Downloads asclubdelf2013-01-18.flac16
Info hash48f8b9e670b8960a9a8234714ff81686b8ab6dd3
db linkhttp://db.etree.org/shn/129706 | Show | Source
DescriptionClub d'Elf
Lizard Lounge
Cambridge, Massachusetts
1/18/2013

Source: Schoeps CCM4V'S(din)>Lunatec V2>Benchmark AD2K>
Sound Devices 722 (24/48)
FOB/DFC/KFC/ZFC/AARP Stage Lip, 3' High
DSP: Sound Devices 722>Sound Forge 9.0>CD Wave>flac(16)
Recorded By: Z-Man
Seeded By: Z-Man

Disc I 1st Set

01 Scorpionic >
02 Quilty
03 *Tuning
04 *?

Disc II 1st Set Con't

01 *?
Hassan Hachmoon:
02 *#Tuning
03 *#?
04 *#?
Club D'elf:
05 Band Introductions
06 Jar Of Hair
07 Band Introductions

Disc III 2nd Set

01 ?
02 @?
03 *? >
04 *?
05 Caveman >
06 Berber Song

* With Hassan Hakmoun
# With Chicago? On Percussion
@ With Hassan Hakmoun On Vocals And Percussion

The Show Was Dedicated to Andrew Mazzone, Who Passed Away This Week.

Flac Fingerprint

clubdelf2013-01-18d01t01.flac:83b6a5f6d294ceed043346b5b2bdf6a2
clubdelf2013-01-18d01t02.flac:164e2e3b31121b3617a1d2cf21e0d36f
clubdelf2013-01-18d01t03.flac:c44fbffcac8837814eb1b7f08137388b
clubdelf2013-01-18d01t04.flac:690b1d49106fa3bbcfffbf82c973e653
clubdelf2013-01-18d02t01.flac:3d95cb64421e0001f7e6fc7bcb9d6346
clubdelf2013-01-18d02t02.flac:a5d054fab650b21ddbfbec690682c4f9
clubdelf2013-01-18d02t03.flac:e5d7ee0d8ba199ecd0b278a9bdc5b927
clubdelf2013-01-18d02t04.flac:408f68355e680b32d9512627a38473d5
clubdelf2013-01-18d02t05.flac:dcd24489a81f5683fc20358eef88312a
clubdelf2013-01-18d02t06.flac:920f229452e9dce39740c495062c5e87
clubdelf2013-01-18d02t07.flac:09a7d5b89b3ea7dcd18b9ec989d5f681
clubdelf2013-01-18d03t01.flac:1824964d00847629ef4c931bea76545d
clubdelf2013-01-18d03t02.flac:e9ac18926f6718d54d2c09dcc5b12482
clubdelf2013-01-18d03t03.flac:ea85e0a712ad23204c83b7a88fc929c6
clubdelf2013-01-18d03t04.flac:43c282addfcc38115d303fda506a8a79
clubdelf2013-01-18d03t05.flac:bd71fa513354396eecc97a5b63f744dd
clubdelf2013-01-18d03t06.flac:938f0e75f25693010b3babf9265174dd

Shntool

length expanded size cdr WAVE problems fmt ratio filename
17:46.18 188084780 B --- -- ---xx flac 0.4415 clubdelf2013-01-18d01t01.flac
19:12.55 203342204 B --- -- ---xx flac 0.4591 clubdelf2013-01-18d01t02.flac
2:27.55 26060204 B --- -- ---xx flac 0.2114 clubdelf2013-01-18d01t03.flac
5:54.36 62530316 B --- -- ---xx flac 0.5275 clubdelf2013-01-18d01t04.flac
10:03.53 106493900 B --- -- ---xx flac 0.4721 clubdelf2013-01-18d02t01.flac
2:12.28 23350700 B --- -- ---xx flac 0.2301 clubdelf2013-01-18d02t02.flac
4:09.58 44060060 B --- -- ---xx flac 0.4343 clubdelf2013-01-18d02t03.flac
5:53.56 62400956 B --- -- ---xx flac 0.4388 clubdelf2013-01-18d02t04.flac
1:41.61 17959916 B --- -- ---xx flac 0.3176 clubdelf2013-01-18d02t05.flac
18:05.74 191568092 B --- -- ---xx flac 0.4085 clubdelf2013-01-18d02t06.flac
1:30.48 15988940 B --- -- ---xx flac 0.3561 clubdelf2013-01-18d02t07.flac
13:16.56 140546156 B --- -- ---xx flac 0.5379 clubdelf2013-01-18d03t01.flac
10:55.53 115666700 B --- -- ---xx flac 0.5036 clubdelf2013-01-18d03t02.flac
9:26.68 100002380 B --- -- ---xx flac 0.3862 clubdelf2013-01-18d03t03.flac
8:24.03 88912700 B --- -- ---xx flac 0.5615 clubdelf2013-01-18d03t04.flac
8:18.32 87922508 B --- -- ---xx flac 0.4718 clubdelf2013-01-18d03t05.flac
6:26.30 68161004 B --- -- ---xx flac 0.4436 clubdelf2013-01-18d03t06.flac
145:47.34 1543051516 B 0.4542 (17 files)

























Checksumsclubdelf2013-01-18d01t01.flac:83b6a5f6d294ceed043346b5b2bdf6a2<br />
clubdelf2013-01-18d01t02.flac:164e2e3b31121b3617a1d2cf21e0d36f<br />
clubdelf2013-01-18d01t03.flac:c44fbffcac8837814eb1b7f08137388b<br />
clubdelf2013-01-18d01t04.flac:690b1d49106fa3bbcfffbf82c973e653<br />
clubdelf2013-01-18d02t01.flac:3d95cb64421e0001f7e6fc7bcb9d6346<br />
clubdelf2013-01-18d02t02.flac:a5d054fab650b21ddbfbec690682c4f9<br />
clubdelf2013-01-18d02t03.flac:e5d7ee0d8ba199ecd0b278a9bdc5b927<br />
clubdelf2013-01-18d02t04.flac:408f68355e680b32d9512627a38473d5<br />
clubdelf2013-01-18d02t05.flac:dcd24489a81f5683fc20358eef88312a<br />
clubdelf2013-01-18d02t06.flac:920f229452e9dce39740c495062c5e87<br />
clubdelf2013-01-18d02t07.flac:09a7d5b89b3ea7dcd18b9ec989d5f681<br />
clubdelf2013-01-18d03t01.flac:1824964d00847629ef4c931bea76545d<br />
clubdelf2013-01-18d03t02.flac:e9ac18926f6718d54d2c09dcc5b12482<br />
clubdelf2013-01-18d03t03.flac:ea85e0a712ad23204c83b7a88fc929c6<br />
clubdelf2013-01-18d03t04.flac:43c282addfcc38115d303fda506a8a79<br />
clubdelf2013-01-18d03t05.flac:bd71fa513354396eecc97a5b63f744dd<br />
clubdelf2013-01-18d03t06.flac:938f0e75f25693010b3babf9265174dd
TypeClub d'Elf
Last seederLast activity 26:45 ago
Size668.35 MB (700819707 Bytes)
Added2013-01-19 08:55:58
Views0
Hits358
Snatched99 times
Upped byzmanatl
Num files18 files
File List
[Hide list]
filenamesizemd5
clubdelf2013-01-18d01t02.flac89.03 MBN/A
clubdelf2013-01-18d01t01.flac79.18 MBN/A
clubdelf2013-01-18d02t06.flac74.64 MBN/A
clubdelf2013-01-18d03t01.flac72.09 MBN/A
clubdelf2013-01-18d03t02.flac55.56 MBN/A
clubdelf2013-01-18d02t01.flac47.94 MBN/A
clubdelf2013-01-18d03t04.flac47.61 MBN/A
clubdelf2013-01-18d03t05.flac39.56 MBN/A
clubdelf2013-01-18d03t03.flac36.84 MBN/A
clubdelf2013-01-18d01t04.flac31.45 MBN/A
clubdelf2013-01-18d03t06.flac28.84 MBN/A
clubdelf2013-01-18d02t04.flac26.12 MBN/A
clubdelf2013-01-18d02t03.flac18.25 MBN/A
clubdelf2013-01-18d02t05.flac5.44 MBN/A
clubdelf2013-01-18d02t07.flac5.43 MBN/A
clubdelf2013-01-18d01t03.flac5.25 MBN/A
clubdelf2013-01-18d02t02.flac5.12 MBN/A
clubdelf2013--01-18.textfile.txt3.6 kBN/A
Peers
[See full list]
2 seeders, 0 leechers = 2 peers total

Add a comment

Tom_of_Mule 2013-01-19 10:42:45
Mornin' Z !
Tom
Halowdance 2013-01-19 10:57:00
Thank you!!
zmanatl 2013-01-19 11:11:12
This was on my radar. Talked with Lynchie and he and Stef were going to get there before doors and secure a seat for me. Thursday turned out to be a 15 hour work day so I was not looking forward to going to Cambridge and trying to find a place to park since the show would go till 1:30-2:00 am and the trains stop long before that. I ended up parking 6 long blocks away. Got in line with those guys and we were let in at the end of the soundcheck. We had our spot up front and set up our stands stage lip. Saw Mike Rivard and said hey. Joe was on sound as usual.

We were treated to 2 great sets of music. Hassan sat in during both sets, always a treat. I always need help with song titles, so feel free to assist. Late night eats was Pork Foo Young and Pork Fried Rice. Yummy!

Enjoy show #8 of 2013!
jasonsobel 2013-01-19 14:48:06
here's a few song titles. there's a lot that I don't know, but I do know these:

d01t01 - Scorpionic
d01t02 - Quilty
d03t06 - Berber Song
zmanatl 2013-01-19 16:14:30
Thanks Jason!

Here are a couple of my amateur videos. Very limited light in the venue, so not the greatest.

Scorpionic >
Quilty:
http://youtu.be/zTSABtU_U6c

Hassan Hakmoun I:
http://youtu.be/OfYhm1MQdik

1st Set II:
http://youtu.be/adX8zghSlR0
axomxa 2013-01-19 18:51:49
6 blocks?!! That further than last Sunday. Are trying to see how far away from venue you can park;-) could not make UM I'll be looking for it.
green stink 2013-01-20 14:41:38
Thanks man! Wanted to come down so much, but had crap loads to do Friday...no 80 minutes each way gas splitting/driving associate. Getting home at 3:30 am on my daughters 6th birthday wasn't going to be a wise idea, especially since her wild/moster like cousins were showing up at 11 am!

Add a comment


http://etree.org : http://db.etree.org : http://forums.etree.org : http://wiki.etree.org : Legal : RSS Feed

Contents designed & maintained by the etree.org volunteers
1998-2014, etree.org, except where noted. All Rights Reserved.
Read our terms of service and privacy guidelines