bt.etree.org
etree.org Community Bittorrent Tracker
ArtistGrateful Dead
Showgd77-05-05.sbd.miller.123485.flac16
Report this as
non-Trade-Friendly
Email us
Torrentgd77-05-05.sbd.miller.123485.flac16.torrent (click to download)
Downloads asgd77-05-05.sbd.miller.123485.flac16
Info hash976217a0effe1ae70804cac52905d8fbb0c926d3
db linkhttp://db.etree.org/shn/123485 | Show | Source
DescriptionGrateful Dead - May 5, 1977
New Haven Coliseum - New Haven, CT

Recording Info:
SBD -> Master Reel (DBX-1 Encoded) -> PCM (Sony PCM501ES/44.055k)

Transfer Info:
PCM (Sony PCM501ES/Analog Out) -> Dat (Panasonic SV-3700/48k) ->
Db 924 (96k/24bit) D/A -> Dolby 361 Module w/ DBX K9-22 Cards(DBX Decoded) ->
Db 1225 (96k/24bit) A/D -> Db 3000s Noise Shaper (SBM) -> Dat (48k) ->
Sound Forge -> CD Wave -> SHN

Mastering Info:
SHN -> FLAC -> Samplitude Professional v11.2.1 -> FLAC
(3 Discs Audio / 1 DVD FLAC)

Original Transfer and Mastering By Rob Eaton and Dan Stephens
Remastered By Charlie Miller
charliemiller87@earthlink.net
January 18, 2013

Notes:
-- All disc changes are seamless
-- This is a remaster of shnid=8832
-- I cleaned up some flaws and adjusted the levels
-- I was able to clean up the static in d1t01

Set 1:
d1t01 - Tuning
d1t02 - Promised Land
d1t03 - Sugaree
d1t04 - Mama Tried ->
d1t05 - El Paso
d1t06 - Tennessee Jed
d1t07 - Looks Like Rain
d1t08 - Deal
d1t09 - Lazy Lightnin' ->
d1t10 - Supplication
d2t01 - Peggy-O
d2t02 - The Music Never Stopped

Set 2:
d2t03 - Tuning
d2t04 - Bertha
d2t05 - Estimated Prophet
d2t06 - Scarlet Begonias ->
d2t07 - Fire On The Mountain ->
d2t08 - Good Lovin'
d3t01 - Saint Stephen ->
d3t02 - Sugar Magnolia

Encore:
d3t03 - Johnny B. Goode


SHNTOOL OUTPUT:
length expanded size cdr WAVE problems fmt ratio filename
2:03.35 21779564 B --- -- ---xx flac 0.4641 gd77-05-05d1t01.flac
7:00.31 74160956 B --- -- ---xx flac 0.5490 gd77-05-05d1t02.flac
18:17.54 193637852 B --- -- ---xx flac 0.5627 gd77-05-05d1t03.flac
2:36.20 27565484 B --- -- ---xx flac 0.6096 gd77-05-05d1t04.flac
6:13.11 65823116 B --- -- ---xx flac 0.5390 gd77-05-05d1t05.flac
11:31.66 122047676 B --- -- ---xx flac 0.5521 gd77-05-05d1t06.flac
11:28.35 121445564 B --- -- ---xx flac 0.5030 gd77-05-05d1t07.flac
8:15.20 87365084 B --- -- ---xx flac 0.5615 gd77-05-05d1t08.flac
3:30.56 37175756 B --- -- ---xx flac 0.6021 gd77-05-05d1t09.flac
7:43.08 81692060 B --- -- ---xx flac 0.5304 gd77-05-05d1t10.flac
10:15.16 108523676 B --- -- ---xx flac 0.5221 gd77-05-05d2t01.flac
7:10.31 75924956 B --- -- ---xx flac 0.6269 gd77-05-05d2t02.flac
2:25.10 25601564 B --- -- ---xx flac 0.4268 gd77-05-05d2t03.flac
9:34.35 101335964 B --- -- ---xx flac 0.5938 gd77-05-05d2t04.flac
12:46.30 135193004 B --- -- ---xx flac 0.5459 gd77-05-05d2t05.flac
10:43.07 113441708 B --- -- ---xx flac 0.6327 gd77-05-05d2t06.flac
12:02.74 127534892 B --- -- ---xx flac 0.6290 gd77-05-05d2t07.flac
11:33.20 122292284 B --- -- ---xx flac 0.5335 gd77-05-05d2t08.flac
11:41.06 123670556 B --- -- ---xx flac 0.6222 gd77-05-05d3t01.flac
8:30.48 90076940 B --- -- ---xx flac 0.6281 gd77-05-05d3t02.flac
4:27.49 47214092 B --- -- ---xx flac 0.6473 gd77-05-05d3t03.flac
179:50.62 1903502748 B 0.5704 (21 files)
Checksums698d1bffb3e911bd57288a57dfecb54a *gd77-05-05d1t01.flac
a9aeb69a3e7a4be96ba7332cf9d00bc3 *gd77-05-05d1t02.flac
5a2ae972eb38a6211e2adab158e3ca14 *gd77-05-05d1t03.flac
b602110a1ef259793a48d1a90a20d22d *gd77-05-05d1t04.flac
6e34ec132c72ec3a7dbc9caf4022c0f1 *gd77-05-05d1t05.flac
1a47fd67ffcfb2d487160e8fdd865ba5 *gd77-05-05d1t06.flac
810386180b7ef91dcee5cbf12b105296 *gd77-05-05d1t07.flac
23ff0d24d7e3ca7aca6ee303ab80dd37 *gd77-05-05d1t08.flac
9b90b178e1f2f9d03fae5771b09c15ac *gd77-05-05d1t09.flac
cf8dfc9393812e2b6489f073d2bd6c8d *gd77-05-05d1t10.flac
044186aa88640ad2fec9150828818bdf *gd77-05-05d2t01.flac
4ca4d9c1b9242639ae54a06daae964ba *gd77-05-05d2t02.flac
26a7ac427e751f2c4cb0c05762568aa3 *gd77-05-05d2t03.flac
6cc5acd7d2137be0b977e6bcfb1be022 *gd77-05-05d2t04.flac
61e10cb19dedb0201b8349b929c88353 *gd77-05-05d2t05.flac
bce06f9f522792c8f3ae391303737db6 *gd77-05-05d2t06.flac
c18473a1e9aac6d33d0fa6c3aec3ce5e *gd77-05-05d2t07.flac
6f7d2442190e8f010f7adc752cc1cd3d *gd77-05-05d2t08.flac
12d1e4b381f1ded7562e2e1e07e44c9f *gd77-05-05d3t01.flac
c91222d39305b0d45285956365b9465b *gd77-05-05d3t02.flac
d760f18ec375d3eb216333bb45b85d82 *gd77-05-05d3t03.flac
TypeGrateful Dead
Last seederLast activity 15:58 ago
Size1.011 GB (1085790192 Bytes)
Added2013-01-19 11:21:07
Views0
Hits1991
Snatched1423 times
Upped byWHARFRAT73
Num files24 files
File List
[Hide list]
filenamesizemd5
gd77-05-05d1t03.flac103.91 MBN/A
gd77-05-05d2t07.flac76.50 MBN/A
gd77-05-05d3t01.flac73.38 MBN/A
gd77-05-05d2t05.flac70.38 MBN/A
gd77-05-05d2t06.flac68.44 MBN/A
gd77-05-05d1t06.flac64.26 MBN/A
gd77-05-05d2t08.flac62.22 MBN/A
gd77-05-05d1t07.flac58.25 MBN/A
gd77-05-05d2t04.flac57.39 MBN/A
gd77-05-05d2t01.flac54.04 MBN/A
gd77-05-05d3t02.flac53.96 MBN/A
gd77-05-05d1t08.flac46.78 MBN/A
gd77-05-05d2t02.flac45.39 MBN/A
gd77-05-05d1t10.flac41.33 MBN/A
gd77-05-05d1t02.flac38.83 MBN/A
gd77-05-05d1t05.flac33.84 MBN/A
gd77-05-05d3t03.flac29.15 MBN/A
gd77-05-05d1t09.flac21.35 MBN/A
gd77-05-05d1t04.flac16.03 MBN/A
gd77-05-05d2t03.flac10.42 MBN/A
gd77-05-05d1t01.flac9.64 MBN/A
gd77-05-05.123485.txt3.3 kBN/A
gd77-05-05.md51.1 kBN/A
gd77-05-05.ffp1.1 kBN/A
Peers
[See full list]
11 seeders, 0 leechers = 11 peers total

Add a comment

gctaper64 2013-01-19 11:43:18
Thank you very much...You know i've put this out there would love to let someone transfer my master shoeps recordings from the 90s,Have cass masters of west coast shows 90-92 then DAT masters some 92,then 93-95 various shows...would lend the masters...biodtl23@gmail.com
jerome70 2013-01-19 12:57:01
thank you fro the fresh miller! Show is a stunner top to bottom.
dewey72 2013-01-19 13:49:41
Thank you!
zmanatl 2013-01-19 14:36:36
Was at this show with my wife. Loved the Scarlet>Fire and St. Stephen>Sugar Mag set closer!
opener17 2013-01-19 16:28:06
ty
geewiz010 2013-01-19 22:15:17
Thanks for this!
balto7 2013-01-20 09:22:55
Thanks a lot! Fantastic classic show. Pristine sound as well.
thecat18 2013-01-20 15:56:31
Thanks for sharing.
thewaymouth 2013-01-20 21:57:46
Cheers for all the wonderful works!
bernie51 2013-01-21 17:04:39
Thank you for this classic. An unbelievable Peggy-O - IMO the best of May 77 (and they're all fantastic) and perhaps the best ever.
Gemini69 2013-01-24 18:43:12
Thank! Great Quality This is an excellent show. I listened to the whole concert last night.
Great Peggy-O
ozjeremy 2013-01-26 20:10:00
Thanks very much!
abeface 2013-02-17 13:05:47
I remember getting a cassette of the 2nd set way back when I was just getting into the band. Such a smooth sound, vintage May 77 stuff. Still one of my fav St Stephens with a great jam in the middle and a very enjoyable transition into a sloooow Sugar Mags.

Listen for the beginning of Fire, all of a sudden the drums just synch perfectly and puts you in a trance, right before Jerry starts his lead in. I've played that part back a million times.
Pisces 2014-05-14 08:08:39
Thanks!

Add a comment


http://etree.org : http://db.etree.org : http://forums.etree.org : http://wiki.etree.org : Legal : RSS Feed

Contents designed & maintained by the etree.org volunteers
1998-2014, etree.org, except where noted. All Rights Reserved.
Read our terms of service and privacy guidelines