bt.etree.org
etree.org Community Bittorrent Tracker
ArtistGrateful Dead
Showgd85-06-22.sbd.miller.123486.flac16
Report this as
non-Trade-Friendly
Email us
Torrentgd85-06-22.sbd.miller.123486.flac16.torrent (click to download)
Downloads asgd85-06-22.sbd.miller.123486.flac16
Info hash1f021418d2a3338019a2154bf02a11e6deb5d591
db linkhttp://db.etree.org/shn/123486 | Show | Source
DescriptionGrateful Dead - June 22, 1985
Alpine Valley Music Theatre - East Troy, WI

Recording Info:
SBD -> Cassette Master -> PCM -> Dat (44.1k)

Transfer Info:
Dat -> Tascam SS-R05 -> Samplitude Professional v11.2.1 -> FLAC
(2 Discs Audio / 1 DVD FLAC)

All Transfers and Mastering By Charlie Miller
charliemiller87@earthlink.net
January 18, 2013

Notes:
-- Encore moved to end of Set 1 to fit onto 2 discs
-- Encore can be rejoined to Set 2 seamlessly
-- I like this source better than other sources I've heard
-- This source is direct from Dat and has a confirmed lineage

Set 1:
d1t01 - Tuning
d1t02 - Hell In A Bucket ->
d1t03 - Sugaree
d1t04 - Walkin' Blues
d1t05 - Candyman
d1t06 - It's All Over Now
d1t07 - Althea
d1t08 - Cassidy
d1t09 - Brown Eyed Women
d1t10 - One More Saturday Night

Set 2:
d2t01 - Keep On Growing ->
d2t02 - Mississippi Half-Step Uptown Toodeloo ->
d2t03 - Lost Sailor ->
d2t04 - Saint Of Circumstance ->
d2t05 - Drums ->
d2t06 - Space ->
d2t07 - Dear Mr. Fantasy ->
d2t08 - I Need A Miracle ->
d2t09 - Stella Blue ->
d2t10 - Throwing Stones ->
d2t11 - Not Fade Away

Encore:
d1t11 - Brokedown Palace


SHNTOOL OUTPUT:
length expanded size cdr WAVE problems fmt ratio filename
1:00.31 10656956 B --- -- ---xx flac 0.5760 gd85-06-22d1t01.flac
6:15.44 66253532 B --- -- ---xx flac 0.6433 gd85-06-22d1t02.flac
9:47.35 103629164 B --- -- ---xx flac 0.6384 gd85-06-22d1t03.flac
9:48.59 103862012 B --- -- ---xx flac 0.6076 gd85-06-22d1t04.flac
6:51.17 72540428 B --- -- ---xx flac 0.6231 gd85-06-22d1t05.flac
7:28.31 79100156 B --- -- ---xx flac 0.6389 gd85-06-22d1t06.flac
8:54.36 94282316 B --- -- ---xx flac 0.6299 gd85-06-22d1t07.flac
5:40.60 60117164 B --- -- ---xx flac 0.6418 gd85-06-22d1t08.flac
5:59.08 63346460 B --- -- ---xx flac 0.6444 gd85-06-22d1t09.flac
4:47.60 50767964 B --- -- ---xx flac 0.6399 gd85-06-22d1t10.flac
5:22.05 56812604 B --- -- ---xx flac 0.6450 gd85-06-22d1t11.flac
5:00.73 53091740 B --- -- ---xx flac 0.6379 gd85-06-22d2t01.flac
7:26.00 78674444 B --- -- ---xx flac 0.6410 gd85-06-22d2t02.flac
6:25.33 67991660 B --- -- ---xx flac 0.6266 gd85-06-22d2t03.flac
7:26.21 78723836 B --- -- ---xx flac 0.6459 gd85-06-22d2t04.flac
11:55.55 126255404 B --- -- ---xx flac 0.5880 gd85-06-22d2t05.flac
6:08.58 65051660 B --- -- ---xx flac 0.5965 gd85-06-22d2t06.flac
6:34.58 69638060 B --- -- ---xx flac 0.6432 gd85-06-22d2t07.flac
3:39.10 38655164 B --- -- ---xx flac 0.6708 gd85-06-22d2t08.flac
7:17.57 77220908 B --- -- ---xx flac 0.6366 gd85-06-22d2t09.flac
8:59.71 95246636 B --- -- ---xx flac 0.6600 gd85-06-22d2t10.flac
6:58.55 73864604 B --- -- ---xx flac 0.6507 gd85-06-22d2t11.flac
149:49.52 1585782872 B 0.6327 (22 files)
Checksums58cecfbb6927dc11a3bdd56e59e79324 *gd85-06-22d1t01.flac
a49c6922f83ba26728f0496922280b99 *gd85-06-22d1t02.flac
6f2a942d2621af42be145ca8d25978ac *gd85-06-22d1t03.flac
8e5619326256d3761e20218f48e90430 *gd85-06-22d1t04.flac
c7e2ed53d9eac837f5308f7b85ae218c *gd85-06-22d1t05.flac
39e0f8e69b940bfc68484aa454869a10 *gd85-06-22d1t06.flac
6f5f012bf651824d5412a9275405c8b1 *gd85-06-22d1t07.flac
ad7a3bdb5a130587935198408bc08f69 *gd85-06-22d1t08.flac
0fcf293b5094be1b30e85840f2a431a7 *gd85-06-22d1t09.flac
e14f9738161c527a09bedc45119b6776 *gd85-06-22d1t10.flac
da523e43842d25a51f1a468e0fa8e725 *gd85-06-22d1t11.flac
7a10fbd653fa7daa28e08baec12099c4 *gd85-06-22d2t01.flac
34de791cd6a169179b5d6545aa2b8e07 *gd85-06-22d2t02.flac
d15ba4b229950d1ac3bb707fcf87fbca *gd85-06-22d2t03.flac
472b2b39c637769892d80c54de79cfc6 *gd85-06-22d2t04.flac
cc2cb388075e907180334482390db2d4 *gd85-06-22d2t05.flac
48550fa75f8c6b8894f8e6cf43f8c31b *gd85-06-22d2t06.flac
72caabb049c3d960992c531904b147b5 *gd85-06-22d2t07.flac
50ca991376eabd2bd61de63047a17913 *gd85-06-22d2t08.flac
ad12b98242f5720371e97325c6d2f82c *gd85-06-22d2t09.flac
5ade58ea041dd5ce7f0881ad0777c35f *gd85-06-22d2t10.flac
77a22df2f0304566c2d8e7c2dec54a44 *gd85-06-22d2t11.flac
TypeGrateful Dead
Last seederLast activity 18:33 ago
Size956.80 MB (1003280759 Bytes)
Added2013-01-19 11:25:38
Views0
Hits1061
Snatched729 times
Upped byWHARFRAT73
Num files25 files
File List
[Hide list]
filenamesizemd5
gd85-06-22d2t05.flac70.80 MBN/A
gd85-06-22d1t03.flac63.09 MBN/A
gd85-06-22d1t04.flac60.18 MBN/A
gd85-06-22d2t10.flac59.95 MBN/A
gd85-06-22d1t07.flac56.64 MBN/A
gd85-06-22d2t04.flac48.49 MBN/A
gd85-06-22d1t06.flac48.19 MBN/A
gd85-06-22d2t02.flac48.10 MBN/A
gd85-06-22d2t09.flac46.88 MBN/A
gd85-06-22d2t11.flac45.84 MBN/A
gd85-06-22d1t05.flac43.10 MBN/A
gd85-06-22d2t07.flac42.72 MBN/A
gd85-06-22d1t02.flac40.65 MBN/A
gd85-06-22d2t03.flac40.63 MBN/A
gd85-06-22d1t09.flac38.93 MBN/A
gd85-06-22d2t06.flac37.01 MBN/A
gd85-06-22d1t08.flac36.79 MBN/A
gd85-06-22d1t11.flac34.95 MBN/A
gd85-06-22d2t01.flac32.30 MBN/A
gd85-06-22d1t10.flac30.98 MBN/A
gd85-06-22d2t08.flac24.73 MBN/A
gd85-06-22d1t01.flac5.85 MBN/A
gd85-06-22.123486.txt3.2 kBN/A
gd85-06-22.md51.2 kBN/A
gd85-06-22.ffp1.2 kBN/A
Peers
[See full list]
2 seeders, 0 leechers = 2 peers total

Add a comment

geewiz010 2013-01-19 22:15:04
Thanks for this!
simonwagstaff 2013-01-20 09:12:31
Love this show!
thecat18 2013-01-20 15:56:57
Thanks for sharing.
brian0174 2013-01-21 15:27:59
what an excellent first set. one of my all time fav
BigBrillo 2013-01-22 19:46:28
Thank you Charlie.....was there and if I remember right KOG was only played for like the 2nd time...and DMF still had Jer singing some lead...bring on the 21st...

bdbeeler 2013-01-24 12:33:31
Thnaks. Great show!
ozjeremy 2013-01-26 20:04:56
Many thanks!

Add a comment


http://etree.org : http://db.etree.org : http://forums.etree.org : http://wiki.etree.org : Legal : RSS Feed

Contents designed & maintained by the etree.org volunteers
1998-2014, etree.org, except where noted. All Rights Reserved.
Read our terms of service and privacy guidelines