bt.etree.org
etree.org Community Bittorrent Tracker
ArtistDrive-By Truckers
ShowDrive-By Truckers 01/18/2013 40 Watt Club Athens, GA neumann ak40's
Report this as
non-Trade-Friendly
Email us
Torrentdbt2013-01-18.ak40.flac16.torrent (click to download)
Downloads asdbt2013-01-18.ak40.flac16
Info hashd241e5f954aeef9d87f7afeb232a8ed8a132a078
db linkhttp://db.etree.org/shn/128453 | Show | Source
DescriptionDrive-By Truckers
01/18/2013
40 Watt Club
Athens, GA

source: Neumann ak40 > lc3 > km100 (din) > Lunatec V3 > Edirol R-44 @ 24/48
location: inside sbd cage just LOC
transfer: SDHC card > PC > wavelab 6.1 > cd wave > traders little helper (flac level 8)

all editing (fades, Crystal Resampler (high), dither w/ iZotope Ozone 5) done in wavelab 6.1

*16bit/44.1khz fileset*

recorded and transferred by Gordon Wilson

A Team Dirty South Recording

01. The Living Bubba
02. Gravity's Gone
03. The Three Great Alabama Icons
04. The Southern Thing
05. Where The Devil Don't Stay
06. I'm Eighteen
07. Love Like This
08. Heathens
09. Birthday Boy
10. Girls Who Smoke
11. Women Without Whiskey
12. A World Of Hurt
13. People Who Died *

RIP Craig Lieske

* w/ Todd McBride - vocal
David Barbe - guitar, vocal
Paul McHugh - guitar


shntool 3.0.4
Copyright (C) 2000-2007 Jason Jordan <shnutils@freeshell.org>

length expanded size cdr WAVE problems fmt ratio filename
6:22.28 67450700 B --- -- ---xx flac 0.4732 dbt2013-01-18t01.flac
3:35.45 38031884 B --- -- ---xx flac 0.4922 dbt2013-01-18t02.flac
5:33.31 58814156 B --- -- ---xx flac 0.4738 dbt2013-01-18t03.flac
5:22.63 56949020 B --- -- ---xx flac 0.5357 dbt2013-01-18t04.flac
4:50.47 51266588 B --- -- ---xx flac 0.5399 dbt2013-01-18t05.flac
5:14.15 55424924 B --- -- ---xx flac 0.5304 dbt2013-01-18t06.flac
5:41.62 60298268 B --- -- ---xx flac 0.4372 dbt2013-01-18t07.flac
5:59.14 63360572 B --- -- ---xx flac 0.4620 dbt2013-01-18t08.flac
3:33.13 37603820 B --- -- ---xx flac 0.5292 dbt2013-01-18t09.flac
5:03.08 53468060 B --- -- ---xx flac 0.5258 dbt2013-01-18t10.flac
4:26.74 47096492 B --- -- ---xx flac 0.5056 dbt2013-01-18t11.flac
7:12.12 76233068 B --- -- ---xx flac 0.4881 dbt2013-01-18t12.flac
7:15.13 76764620 B --- -- ---xx flac 0.5677 dbt2013-01-18t13.flac
70:10.50 742762172 B 0.5040 (13 files)
Checksums; flac fingerprint file generated by Trader's Little Helper
; generated on January 19, 2013, at 12:15:59

dbt2013-01-18t01.flac:b20725b6815b77e65d51e9cabbc10faa
dbt2013-01-18t02.flac:288674e063d2df15e2c1d3b86eedf80a
dbt2013-01-18t03.flac:824e81751bdf7ffd448ef2fdd2b95b9c
dbt2013-01-18t04.flac:ee3ac35ff88eb88173198faed69686ff
dbt2013-01-18t05.flac:7101c7c0d567b28bf8dd803f237c70af
dbt2013-01-18t06.flac:028d330b14e16bec04063b6a1404ba6c
dbt2013-01-18t07.flac:410765a5eed91d127d811272910d51eb
dbt2013-01-18t08.flac:2ab50c85f7ddaf7f8e468b9bb96a8df0
dbt2013-01-18t09.flac:923162061af7846bba83aee8d108dbdf
dbt2013-01-18t10.flac:20ceb7adf3533dea3722262a74930044
dbt2013-01-18t11.flac:26edcef9add9ca0dff37cd32b617922f
dbt2013-01-18t12.flac:f67b2689abaa640af535742b76d436e5
dbt2013-01-18t13.flac:418a2d0a064d917f2c71515fca7a5660
TypeDrive-By Truckers
Last seederLast activity 15:02 ago
Size357.58 MB (374946402 Bytes)
Added2013-01-19 12:24:17
Views0
Hits555
Snatched122 times
Upped bydatdork
Num files
[See full list]
15 files
Peers
[See full list]
1 seeder, 0 leechers = 1 peer total

Add a comment

zmanatl 2013-01-19 14:29:09
Nice work Gordon! Was there a somber mood when it started? Any dedication to Craig? Tell Matt D hey for me tonight. I sent him a text.
zmanatl 2013-01-19 14:31:09
I can see it in the setlist choices, I meant were any words spoken on Craig's passing?
datdork 2013-01-19 14:37:58
not at all actually. they were a wreck obviously but played a great short set.
brofan 2013-01-19 14:44:14
Looks like a VERY short set, especially for their annual Athens run.....
brofan 2013-01-19 14:46:29
My previous comment may have seemed a bit harsh - not my intention and I'm sorry if it sounded that way.
datdork 2013-01-19 14:49:58
well when one of your best friends die that morning it's to be expected ;)
tdwriter 2013-01-19 15:00:43
We listened to the stream and thought they were taking a long encore break after People Who Died. I kept listening because the stream was still on but was not surprised when I saw the set list.
I doubt any Truckers fans will fault them for a short set considering what they were dealing with. "World of Hurt" was especially emotional.

Thanks for the stream, Gordon.
reservationgirl 2013-01-19 21:34:04
Thanks!
datdork 2013-02-03 10:30:55
http://archive.org/details/dbt2013-01-18.ak40.flac16

Add a comment


http://etree.org : http://db.etree.org : http://forums.etree.org : http://wiki.etree.org : Legal : RSS Feed

Contents designed & maintained by the etree.org volunteers
1998-2014, etree.org, except where noted. All Rights Reserved.
Read our terms of service and privacy guidelines