bt.etree.org
etree.org Community Bittorrent Tracker
ArtistOther
ShowThundercrack 01/17/2013 40 Watt Club Athens, GA neumann ak40's
Report this as
non-Trade-Friendly
Email us
Torrentthundercrack2013-01-17.ak40.flac16.torrent (click to download)
Downloads asthundercrack2013-01-17.ak40.flac16
Info hash8305a850407aa471459e408cb3a984233156ea04
db linkhttp://db.etree.org/shn/130263 | Show | Source
DescriptionThundercrack
01/17/2013
40 Watt Club
Athens, GA

source: Neumann ak40 > lc3 > km100 (din) > Lunatec V3 > Edirol R-44 @ 24/48
location: inside sbd cage just LOC
transfer: SDHC card > PC > wavelab 6.1 > cd wave > traders little helper (flac level 8)

all editing (fades, Crystal Resampler (high), dither w/ iZotope Ozone 5) done in wavelab 6.1

*16bit/44.1khz fileset*

recorded and transferred by Gordon Wilson

A Team Dirty South Recording

01. Intro
02. The Promised Land
03. Born in the USA
04. Candy's Room *
05. Prove it All Night
06. Born to Run

* w/ Patterson Hood on vocals

RIP Craig Lieske


shntool 3.0.4
Copyright (C) 2000-2007 Jason Jordan <shnutils@freeshell.org>

length expanded size cdr WAVE problems fmt ratio filename
1:00.62 10729868 B --- -- ---xx flac 0.3646 thundercrack2013-01-17t01.flac
5:09.72 54676988 B --- -- ---xx flac 0.5012 thundercrack2013-01-17t02.flac
4:34.23 48387740 B --- -- ---xx flac 0.5323 thundercrack2013-01-17t03.flac
3:04.33 32535260 B --- -- ---xx flac 0.4765 thundercrack2013-01-17t04.flac
11:16.20 119293484 B --- -- ---xx flac 0.4701 thundercrack2013-01-17t05.flac
5:24.31 57226556 B --- -- ---xx flac 0.5290 thundercrack2013-01-17t06.flac
30:30.16 322849896 B 0.4923 (6 files)
Checksums; flac fingerprint file generated by Trader\'s Little Helper<br />
; generated on January 19, 2013, at 15:29:53<br />
<br />
thundercrack2013-01-17t01.flac:f804536d8398bcefb232619916a22c27<br />
thundercrack2013-01-17t02.flac:452e8b84346b02784da1e76ef17b0b43<br />
thundercrack2013-01-17t03.flac:7fcec5603f7588a8669ee63c99f1ddf3<br />
thundercrack2013-01-17t04.flac:c69d73ea04d8e3056d7c0151b917eb06<br />
thundercrack2013-01-17t05.flac:ac67c0c9dc722c66f7bc9d38cbf6ce06<br />
thundercrack2013-01-17t06.flac:d6d20a98e7c1b4d74c21d155c34c78e4<br />
TypeOther
Last seederLast activity 114 days, 23:36:56 ago
Size151.97 MB (159350686 Bytes)
Added2013-01-19 15:40:28
Views0
Hits192
Snatched51 times
Upped bydatdork
Num files
[See full list]
8 files
Peers
[See full list]
0 seeders, 1 leecher = 1 peer total

Add a comment

reservationgirl 2013-01-19 21:36:13
Thanks!
twatts 2013-01-21 16:33:51
Thanks Gordon...

Terry

Add a comment


http://etree.org : http://db.etree.org : http://forums.etree.org : http://wiki.etree.org : Legal : RSS Feed

Contents designed & maintained by the etree.org volunteers
1998-2014, etree.org, except where noted. All Rights Reserved.
Read our terms of service and privacy guidelines