bt.etree.org
etree.org Community Bittorrent Tracker
ArtistOther
ShowLucero - 2013-01-18 - The Warehouse at Mt. Victor - Bowling Green, KY. *Matrix*
Report this as
non-Trade-Friendly
Email us
Torrentlucero2013-01-18.matrix.flac16.torrent (click to download)
Downloads aslucero2013-01-18.matrix.flac16
Info hash8c3dfd79a1fb1599061a692eb2113733d66dfead
DescriptionLucero
2013-01-18
The Warehouse at Mt. Victor
Bowling Green, KY.


***16bit Source***


Source: SBD + Schoeps MK4V > KC5 > CMC6 > Sound Devices 744T (24bit/48kHz)
Location: FOB / DFC / 8ft
Transfer: 744T > HDD > Wavelab 6.1 (DSP/Fades/Re-Sampler192/MBit+ Dither) > CDWave > TLH > FLAC (8)
Taped, Transferred & Seeded by Martin Medley


One Set:

01. Intro
02. Darken My Door
03. On My Way Downtown
04. Nights Like These
05. Kiss The Bottle
06. It Gets The Worst At Night
07. Women And Work
08. Raising Hell
09. Texas And Tennessee
10. Like Lightning
11. Joining The Army
12. Tonight Ain't Gonna Be Good
13. Juniper
14. Slow Dancing
15. Can't Feel A Thing
16. Mom
17. The War
18. Other Side Of Lonesome
19. All Sewn Up
20. Hold Fast
21. My Best Girl
22. Hearts On Fire
23. Tears Don't Matter Much
24. She Wakes When She Dreams
25. That Much Further West
26. Hold Me



shntool info:

length expanded size cdr WAVE problems fmt ratio filename
1:20.29 14180252 B --- -- ---xx flac 0.5350 lucero2013-01-18t01.flac
4:11.16 44314076 B --- -- ---xx flac 0.5882 lucero2013-01-18t02.flac
5:22.63 56949020 B --- -- ---xx flac 0.6139 lucero2013-01-18t03.flac
3:53.62 41247068 B --- -- ---xx flac 0.5741 lucero2013-01-18t04.flac
4:27.58 47235260 B --- -- ---xx flac 0.5952 lucero2013-01-18t05.flac
4:19.16 45725276 B --- -- ---xx flac 0.5477 lucero2013-01-18t06.flac
3:51.28 40814300 B --- -- ---xx flac 0.6043 lucero2013-01-18t07.flac
3:53.66 41256476 B --- -- ---xx flac 0.5875 lucero2013-01-18t08.flac
5:00.54 53047052 B --- -- ---xx flac 0.5534 lucero2013-01-18t09.flac
4:49.39 51071372 B --- -- ---xx flac 0.6122 lucero2013-01-18t10.flac
1:16.26 13467596 B --- -- ---xx flac 0.5127 lucero2013-01-18t11.flac
2:49.05 29823404 B --- -- ---xx flac 0.6418 lucero2013-01-18t12.flac
6:15.10 66173564 B --- -- ---xx flac 0.6137 lucero2013-01-18t13.flac
4:44.15 50132924 B --- -- ---xx flac 0.5339 lucero2013-01-18t14.flac
6:03.26 64094396 B --- -- ---xx flac 0.5407 lucero2013-01-18t15.flac
4:52.19 51553532 B --- -- ---xx flac 0.4855 lucero2013-01-18t16.flac
6:27.42 68365628 B --- -- ---xx flac 0.5235 lucero2013-01-18t17.flac
3:18.58 35063660 B --- -- ---xx flac 0.5896 lucero2013-01-18t18.flac
6:42.01 70915196 B --- -- ---xx flac 0.5986 lucero2013-01-18t19.flac
3:54.45 41383484 B --- -- ---xx flac 0.5229 lucero2013-01-18t20.flac
5:01.22 53148188 B --- -- ---xx flac 0.5443 lucero2013-01-18t21.flac
3:41.01 38986796 B --- -- ---xx flac 0.6282 lucero2013-01-18t22.flac
6:33.62 69471068 B --- -- ---xx flac 0.6026 lucero2013-01-18t23.flac
8:22.08 88571660 B --- -- ---xx flac 0.4861 lucero2013-01-18t24.flac
4:53.50 51802844 B --- -- ---xx flac 0.5686 lucero2013-01-18t25.flac
3:04.37 32544668 B --- -- ---xx flac 0.5014 lucero2013-01-18t26.flac
119:10.33 1261338760 B 0.5651 (26 files)
Checksumslucero2013-01-18t01.flac:decc13ba4a96e4a1d30d30ec829eff5e<br />
lucero2013-01-18t02.flac:1f25882488395c381a470e1bab7cf50d<br />
lucero2013-01-18t03.flac:645fc069ee5b18728cc382f562519b15<br />
lucero2013-01-18t04.flac:85bd959adf67aaf86985cd35b08e74a2<br />
lucero2013-01-18t05.flac:8b417191733ecf3e4c33b17e3509bbcd<br />
lucero2013-01-18t06.flac:5b600701209153531ce68a382324c48e<br />
lucero2013-01-18t07.flac:b67b49728f3e3d544e8014dead640fdd<br />
lucero2013-01-18t08.flac:2371bcd05feaa0c379e436d31211a5aa<br />
lucero2013-01-18t09.flac:af7f446a17de626a550a13292d218ba9<br />
lucero2013-01-18t10.flac:534e065208e88c756c868e16945b0f5e<br />
lucero2013-01-18t11.flac:9fafda18ca78d9b62a5e0fdcc6b06f2e<br />
lucero2013-01-18t12.flac:8e4522b0b4a38d0655d1cfe79d36dda6<br />
lucero2013-01-18t13.flac:f77b10708796c85642b3503865aa2605<br />
lucero2013-01-18t14.flac:8bc79022625c4b289560c4be9f30c449<br />
lucero2013-01-18t15.flac:3e8a344f5c2f30cf9e6bc80e1490588e<br />
lucero2013-01-18t16.flac:2ea4b72601a714a44edf8931dd565571<br />
lucero2013-01-18t17.flac:fe2d277341334b85fa3ae53139f0136b<br />
lucero2013-01-18t18.flac:2118ba57ac8dda2a82202f77f8b9fbe4<br />
lucero2013-01-18t19.flac:ac374f08032aaff85274dd728f6d9550<br />
lucero2013-01-18t20.flac:14bae39a8c5d25e8830f81534e35ac2a<br />
lucero2013-01-18t21.flac:237e34a90419121e6ebe1337884528ab<br />
lucero2013-01-18t22.flac:2f017a1a17b3894453eee516f1f8ffc7<br />
lucero2013-01-18t23.flac:6ed3dc124d8f7e9c8d8374fdde0941f0<br />
lucero2013-01-18t24.flac:991b50c73f77a7912e1f831f24fde9c5<br />
lucero2013-01-18t25.flac:0b4612e7f15e44bd5b5c0856b50fa5d5<br />
lucero2013-01-18t26.flac:c0a0906323ec37b93a0e200f5253c367<br />
TypeOther
Last seederLast activity 3 days, 07:17:04 ago
Size679.73 MB (712750528 Bytes)
Added2013-01-19 19:41:09
Views0
Hits322
Snatched128 times
Upped bymmedley
Num files
[See full list]
27 files
Seeders
[Hide list]
0 Seeder(s)
Leechers
[Hide list]
0 Leecher(s)

Add a comment

hardyross 2013-01-19 19:51:10
Nice work Martina!
dorrcoq 2013-01-19 20:08:08
Thanks, Martin
reservationgirl 2013-01-19 21:51:14
Thanks!
Blues_Ken 2013-01-19 23:35:52
Thank you
bonghitwillie 2013-01-20 00:32:30
the equipment that you used is almost to good for Lucero
zmanatl 2013-01-20 03:44:26
Go Martina. You are becoming a regular here on bt!
chrisdavis 2013-01-20 07:49:19
the equipment that you used is almost to good for Lucero

:lol:
scootertrash 2013-01-20 18:30:27
Thanks marteeeena

Add a comment


http://etree.org : http://db.etree.org : http://forums.etree.org : http://wiki.etree.org : Legal : RSS Feed

Contents designed & maintained by the etree.org volunteers
1998-2014, etree.org, except where noted. All Rights Reserved.
Read our terms of service and privacy guidelines