bt.etree.org
etree.org Community Bittorrent Tracker
ArtistUmphrey's McGee
ShowUmphrey's McGee 2012-12-29 The Tabernacle, Atlanta Ga. akg c426b*FIXED*
Report this as
non-Trade-Friendly
Email us
Torrentum2012-12-29.akg c426b.fixed.flac16.1.torrent (click to download)
Downloads asum2012-12-29.akg c426b.fixed.flac16
Info hasha8b644966035cd91eb91b951d75a134bb1ef4073
db linkhttp://db.etree.org/shn/129692 | Show | Source
DescriptionUmphrey's McGee
2012-12-29
The Tabernacle, Atlanta, Ga.

Source: AKG c426b (mid/side dfc 1st balcony rail)>V3 (24/96)>sd722
Transfer: firewire>[wavelab 6.10: Voxengo MSED (ms processing), Crystal Resampler (downsample) iZotope Ozone 4 (dither)]>CDWav (splits)>FLACFrontend
taped and transferred by John Barren
A Team Dirty South Recording

Set 1
01. Drink My Drank*>
02. Der Bluten Kat>
03. Kula>
04. Hangover>
05. Who Knows>
06. Hangover
07. Loose Ends>
08. Der Bluten Kat,
09. Example 1
10. Señor Mouse
11. house music

Set 2
01. 1348>
02. Day Nurse>
03. Syncopated Strangers
04. The Linear>
05. Conduit
06. banter
07. Wish#
08. August>
09. 1348
10. crowd/banter
Encore:
11. Divisions
12. house music

* debut, original
# debut, Nine Inch Nails
Zoogma opened
setlist from umphreys.com

Thanks again to Jon McClelland and Umphrey's Mcgee for the great support for the tapers

Shntool
length expanded size cdr WAVE problems fmt ratio filename
5:31.00 58388444 B --- -- ---xx flac 0.5059 um2012-12-29s1t01.flac
7:39.53 81092300 B --- -- ---xx flac 0.5270 um2012-12-29s1t02.flac
7:49.67 82889228 B --- -- ---xx flac 0.5342 um2012-12-29s1t03.flac
6:38.20 70254284 B --- -- ---xx flac 0.5232 um2012-12-29s1t04.flac
3:00.44 31855532 B --- -- ---xx flac 0.5363 um2012-12-29s1t05.flac
2:35.03 27349100 B --- -- ---xx flac 0.4947 um2012-12-29s1t06.flac
5:27.38 57772220 B --- -- ---xx flac 0.5268 um2012-12-29s1t07.flac
13:11.14 139565372 B --- -- ---xx flac 0.5288 um2012-12-29s1t08.flac
12:18.35 130265564 B --- -- ---xx flac 0.5135 um2012-12-29s1t09.flac
7:52.66 83416076 B --- -- ---xx flac 0.5224 um2012-12-29s1t10.flac
1:11.51 12644396 B --- -- ---xx flac 0.4394 um2012-12-29s1t11.flac
12:22.08 130907660 B --- -- ---xx flac 0.5236 um2012-12-29s2t01.flac
9:46.12 103398668 B --- -- ---xx flac 0.5037 um2012-12-29s2t02.flac
8:23.42 88828028 B --- -- ---xx flac 0.4973 um2012-12-29s2t03.flac
9:53.46 104713436 B --- -- ---xx flac 0.5165 um2012-12-29s2t04.flac
13:17.13 140621420 B --- -- ---xx flac 0.5307 um2012-12-29s2t05.flac
1:03.57 11247308 B --- -- ---xx flac 0.4992 um2012-12-29s2t06.flac
4:52.02 51513548 B --- -- ---xx flac 0.5274 um2012-12-29s2t07.flac
13:57.58 147783260 B --- -- ---xx flac 0.5264 um2012-12-29s2t08.flac
3:47.49 40158092 B --- -- ---xx flac 0.5162 um2012-12-29s2t09.flac
3:54.16 41315276 B --- -- ---xx flac 0.4341 um2012-12-29s2t10.flac
16:42.15 176788124 B --- -- ---xx flac 0.5064 um2012-12-29s2t11.flac
1:31.21 16101836 B --- -- ---xx flac 0.4649 um2012-12-29s2t12.flac
172:47.55 1828869172 B 0.5161 (23 files)

Checksumsum2012-12-29s1t01.flac:a7634a6a023b1f449b58caabd391c26e
um2012-12-29s1t02.flac:5a61b568400664e67d88246a26122dda
um2012-12-29s1t03.flac:8eaeefa634f8bfd1eb5f9e3112937570
um2012-12-29s1t04.flac:396fdfa42de55ac304bcd2250a52fae8
um2012-12-29s1t05.flac:f03f63bc2bb82de3cbc5a714fe4386ae
um2012-12-29s1t06.flac:e9f852f725df24ce049b4cbc660b8452
um2012-12-29s1t07.flac:bf4294dd7b3dbb8c7ca35cf4426b74e5
um2012-12-29s1t08.flac:41355e5dd1b0fccff6d1c1ac9987352e
um2012-12-29s1t09.flac:5ff6c51b6d32016c418f701cb0aaf975
um2012-12-29s1t10.flac:238389f98d2eb37cf06e4da4d05591cc
um2012-12-29s1t11.flac:1a8f3e9d853012b075739c941eb75aac
um2012-12-29s2t01.flac:e4938b5581454c617b118ac2090ff5be
um2012-12-29s2t02.flac:af39c9985ad7e24e884bfaf4ebfdeda3
um2012-12-29s2t03.flac:d2c899be00750bb7e8ab3cd4e69755ce
um2012-12-29s2t04.flac:0474a30bf2f7cca721e3ff82dded2524
um2012-12-29s2t05.flac:53f1a29d0813cc023c6380e2f6df67e9
um2012-12-29s2t06.flac:9f4e4c6d6a878e71260b4772a2d8a1ba
um2012-12-29s2t07.flac:be2183853678ec9d3a78632c1c68ac40
um2012-12-29s2t08.flac:e319630d238716e47afe9fbcfc846de5
um2012-12-29s2t09.flac:b6dc006c029a4dee69034ccb90e76245
um2012-12-29s2t10.flac:b09656c4c2e2d604c69331f86a512cff
um2012-12-29s2t11.flac:592f8503655c38b0825e09b6fdae608f
um2012-12-29s2t12.flac:0922948bf3d51ac38b7331e28947e27f
TypeUmphrey's McGee
Last seederLast activity 10 days, 12:18:20 ago
Size900.24 MB (943974018 Bytes)
Added2013-01-20 11:15:19
Views0
Hits153
Snatched20 times
Upped bybarren
Num files26 files
File List
[Hide list]
filenamesizemd5
um2012-12-29s2t11.flac85.38 MBN/A
um2012-12-29s2t08.flac74.19 MBN/A
um2012-12-29s2t05.flac71.17 MBN/A
um2012-12-29s1t08.flac70.39 MBN/A
um2012-12-29s2t01.flac65.36 MBN/A
um2012-12-29s1t09.flac63.79 MBN/A
um2012-12-29s2t04.flac51.58 MBN/A
um2012-12-29s2t02.flac49.67 MBN/A
um2012-12-29s1t03.flac42.23 MBN/A
um2012-12-29s2t03.flac42.13 MBN/A
um2012-12-29s1t10.flac41.56 MBN/A
um2012-12-29s1t02.flac40.75 MBN/A
um2012-12-29s1t04.flac35.06 MBN/A
um2012-12-29s1t07.flac29.03 MBN/A
um2012-12-29s1t01.flac28.17 MBN/A
um2012-12-29s2t07.flac25.91 MBN/A
um2012-12-29s2t09.flac19.77 MBN/A
um2012-12-29s2t10.flac17.11 MBN/A
um2012-12-29s1t05.flac16.29 MBN/A
um2012-12-29s1t06.flac12.90 MBN/A
um2012-12-29s2t12.flac7.14 MBN/A
um2012-12-29s2t06.flac5.35 MBN/A
um2012-12-29s1t11.flac5.30 MBN/A
folder.jpg25.7 kBN/A
Umphrey's Mcgee2012-12-29.txt3.1 kBN/A
Umphrey's Mcgee2012-12-29ffp.txt1.3 kBN/A
Peers
[See full list]
1 seeder, 0 leechers = 1 peer total

Add a comment

barren 2013-01-20 11:19:00
Thanks to RJ for pointing out that s1t08 in my first upload was largely silence. In processing from .wav to .flac some corruption occured. I've never seen that before. Anyway here is the complete recording. Sorry for the inconvenience.
zmanatl 2013-01-20 11:36:24
Nice rebound Pops! Saw the boys last night. Tracking now. Hope you and Janet are well!
comesatime7 2013-01-20 15:02:04
RJ's a jerk. Thanks for the fix. UM is webcasting from Brooklyn Bowl tonight.
comesatime7 2013-01-20 15:02:30
psst I'm RJ
gdv 2013-01-22 16:20:41
"...s1t08 in my first upload was largely silence. In processing from .wav to .flac some corruption occured..."

Thanks for the corrected update!!! :)

I doubt this had anything to do with the corruption, but the ffp file in the first um2012-12-29.akg c426b.flac16 folder with the corrupt s1t08 ( http://bt.etree.org/details.php?id=561109 ) was actually the ffp for um2012-12-28.akg c426b.flac16 (um2012-12-28ffp.txt), renamed as "Umphrey's Mcgee2012-12-29ffp.txt".

This new torrent ( http://bt.etree.org/details.php?id=561522 ) appears to contain the correct "Umphrey's Mcgee2012-12-29ffp.txt" file.

BTW, I don't know how this sort of "housekeeping" gets done, but shouldn't the torrent with the corrupted s1t08 (http://bt.etree.org/details.php?id=561109 ) be removed from the site/tracker?

Add a comment


http://etree.org : http://db.etree.org : http://forums.etree.org : http://wiki.etree.org : Legal : RSS Feed

Contents designed & maintained by the etree.org volunteers
© 1998-2014, etree.org, except where noted. All Rights Reserved.
Read our terms of service and privacy guidelines