bt.etree.org
etree.org Community Bittorrent Tracker
ArtistGrateful Dead
Showgd82-09-12.114138.sbd.miller.t-flac16
Report this as
non-Trade-Friendly
Email us
Torrentgd82-09-12.114138.sbd.miller.t-flac16.torrent (click to download)
Downloads asgd82-09-12.114138.sbd.miller.t-flac16
Info hashf37795a61485e7fdcad676565ac39dce5b5526da
db linkhttp://db.etree.org/shn/114138 | Show | Source
DescriptionThis is a tagged version of shnid: 114138

Grateful Dead
September 12, 1982
Civic Center
Lakeland, FL

Recording Info:
SBD -> Cassette Master -> Reel -> Dat -> CD

Transfer Info:
CD -> Samplitude Professional v11.2 -> Adobe Audition v1.5 -> FLAC
(2 Discs Audio / 1 DVD FLAC)

All Transfers and Mastering By Charlie Miller
charliemiller87@arthlink.net
June 21, 2011

Notes:
-- Disc change is seamless
-- This is a re-master of shnid=7826
-- This was incorrectly labled as a Cassette Master
-- Thanks to Joe B. Jones for his help with the pitch correction
_____________________________________________________________________________

--Set 1--
101-d1t01 - Alabama Getaway ->
102-d1t02 - Greatest Story Ever Told
103-d1t03 - Friend of the Devil
104-d1t04 - Cassidy
105-d1t05 - West L.A. Fadeaway
106-d1t06 - Little Red Rooster
107-d1t07 - Brown Eyed Women
108-d1t08 - It's All Over Now
109-d1t09 - Might As Well

--Set 2--
201-d1t10 - Man Smart (Woman Smarter)
202-d1t11 - Ship of Fools
203-d2t01 - Playing in the Band ->
204-d2t02 - Drums ->
205-d2t03 - Space ->
206-d2t04 - The Wheel ->
207-d2t05 - Not Fade Away ->
208-d2t06 - Morning Dew ->
209-d2t07 - Sugar Magnolia

--Encore--
210-d2t08 - Don't Ease Me In
____________________________________________________________________________

Tagging notes:
Show information is embedded within the header of each flac file.
It will display on any player capable of directly playing flac
files. If converted to wav during processing, all tags will be
stripped, however audio data will remain unaffected. If you must
transcode to a lossy format, do so directly Flac > Lossy.
Use ffp to validate audio integrity.
Md5 values will change if tagging is altered.
B. Proctor 6-29-11
_____________________________________________________________________________

SHNTOOL OUTPUT:
length expanded size cdr WAVE problems filename
4:56.05 52226204 --- -- ----- gd82-09-12d1t01.wav
4:16.27 45221948 --- -- ----- gd82-09-12d1t02.wav
9:10.04 97029452 --- -- ----- gd82-09-12d1t03.wav
5:30.09 58233212 --- -- ----- gd82-09-12d1t04.wav
8:27.10 89458364 --- -- ----- gd82-09-12d1t05.wav
8:11.21 86661836 --- -- ----- gd82-09-12d1t06.wav
5:50.29 61808252 --- -- ----- gd82-09-12d1t07.wav
8:38.55 91504604 --- -- ----- gd82-09-12d1t08.wav
4:20.14 45896972 --- -- ----- gd82-09-12d1t09.wav
7:14.52 76679948 --- -- ----- gd82-09-12d1t10.wav
7:40.30 81214604 --- -- ----- gd82-09-12d1t11.wav
16:09.05 170943404 --- -- ----- gd82-09-12d2t01.wav
5:23.16 57014876 --- -- ----- gd82-09-12d2t02.wav
5:04.62 53771468 --- -- ----- gd82-09-12d2t03.wav
5:38.19 59667932 --- -- ----- gd82-09-12d2t04.wav
8:22.57 88686908 --- -- ----- gd82-09-12d2t05.wav
10:42.72 113418188 --- -- ----- gd82-09-12d2t06.wav
8:21.04 88385852 --- -- ----- gd82-09-12d2t07.wav
3:04.46 32565836 --- -- ----- gd82-09-12d2t08.wav
137:02.12 1450389860 B (totals for 19 files)
Checksumsgd82-09-12d1t01.flac:65e3b3810a34e5958dce1cfabe66e789
gd82-09-12d1t02.flac:e48f9bf0afbee7e8ad0652be5db8b2c8
gd82-09-12d1t03.flac:28eca3a7414fd2862e96e802c444692b
gd82-09-12d1t04.flac:d04b281ea2f3797306bab5502572c320
gd82-09-12d1t05.flac:203bbff5f578e4f6c8b9cc89e074d4d5
gd82-09-12d1t06.flac:14a2cf1b6e19eb0a46b99348c6846918
gd82-09-12d1t07.flac:f57ce36d7ecb58c21f6435392f447209
gd82-09-12d1t08.flac:93f19c8c144efe044d51ac6eb948d33b
gd82-09-12d1t09.flac:7a2ffe263b16172bec76e6cdbeb92bf9
gd82-09-12d1t10.flac:650d8558cbbb9f1ed1def8f84936ed94
gd82-09-12d1t11.flac:018d0992a630f70d70f4a1fa1b144650
gd82-09-12d2t01.flac:7f49ce87dfbc7a93dd33669ca1f09601
gd82-09-12d2t02.flac:7ec6ce9a8a3328b8f19b3948110a242e
gd82-09-12d2t03.flac:35de702c3d2afdcc422b4ef7085c1cec
gd82-09-12d2t04.flac:dd38f7e952a2f68628fd314d2e559d2b
gd82-09-12d2t05.flac:93314d704efa404ef883130bde23da67
gd82-09-12d2t06.flac:e2d24907c37bff66e8dfc82f7fd79dc7
gd82-09-12d2t07.flac:b344b11ffdd72a65644724457495020b
gd82-09-12d2t08.flac:27ebccf1103198bb6905f5eeaf2bb0ae
TypeGrateful Dead
Last seederLast activity 11:00 ago
Size960.00 MB (1006633150 Bytes)
Added2013-01-20 13:42:16
Views1
Hits529
Snatched330 times
Upped bySpiralLightofVenus
Num files22 files
File List
[Hide list]
filenamesizemd5
gd82-09-12.114138.sbd.miller.t-flac16/gd82-09-12.114138.tagged.md51.1 kBN/A
gd82-09-12.114138.sbd.miller.t-flac16/gd82-09-12.114138.txt3.3 kBN/A
gd82-09-12.114138.sbd.miller.t-flac16/gd82-09-12.ffp1.0 kBN/A
gd82-09-12.114138.sbd.miller.t-flac16/gd82-09-12d1t01.flac35.10 MBN/A
gd82-09-12.114138.sbd.miller.t-flac16/gd82-09-12d1t02.flac30.07 MBN/A
gd82-09-12.114138.sbd.miller.t-flac16/gd82-09-12d1t03.flac63.54 MBN/A
gd82-09-12.114138.sbd.miller.t-flac16/gd82-09-12d1t04.flac39.84 MBN/A
gd82-09-12.114138.sbd.miller.t-flac16/gd82-09-12d1t05.flac59.45 MBN/A
gd82-09-12.114138.sbd.miller.t-flac16/gd82-09-12d1t06.flac57.52 MBN/A
gd82-09-12.114138.sbd.miller.t-flac16/gd82-09-12d1t07.flac41.58 MBN/A
gd82-09-12.114138.sbd.miller.t-flac16/gd82-09-12d1t08.flac63.66 MBN/A
gd82-09-12.114138.sbd.miller.t-flac16/gd82-09-12d1t09.flac31.15 MBN/A
gd82-09-12.114138.sbd.miller.t-flac16/gd82-09-12d1t10.flac53.66 MBN/A
gd82-09-12.114138.sbd.miller.t-flac16/gd82-09-12d1t11.flac53.51 MBN/A
gd82-09-12.114138.sbd.miller.t-flac16/gd82-09-12d2t01.flac114.85 MBN/A
gd82-09-12.114138.sbd.miller.t-flac16/gd82-09-12d2t02.flac34.54 MBN/A
gd82-09-12.114138.sbd.miller.t-flac16/gd82-09-12d2t03.flac28.84 MBN/A
gd82-09-12.114138.sbd.miller.t-flac16/gd82-09-12d2t04.flac39.68 MBN/A
gd82-09-12.114138.sbd.miller.t-flac16/gd82-09-12d2t05.flac58.50 MBN/A
gd82-09-12.114138.sbd.miller.t-flac16/gd82-09-12d2t06.flac71.83 MBN/A
gd82-09-12.114138.sbd.miller.t-flac16/gd82-09-12d2t07.flac60.58 MBN/A
gd82-09-12.114138.sbd.miller.t-flac16/gd82-09-12d2t08.flac22.10 MBN/A
Peers
[See full list]
2 seeders, 0 leechers = 2 peers total

Add a comment

jerome70 2013-01-20 14:28:19
thanX!
geewiz010 2013-01-28 18:52:21
Thanks for this!
bdelyon 2013-02-18 12:31:30
love a good Don't Ease encore. thank you for uploading

Add a comment


http://etree.org : http://db.etree.org : http://forums.etree.org : http://wiki.etree.org : Legal : RSS Feed

Contents designed & maintained by the etree.org volunteers
1998-2014, etree.org, except where noted. All Rights Reserved.
Read our terms of service and privacy guidelines