bt.etree.org
etree.org Community Bittorrent Tracker
ArtistGrateful Dead
Showgd82-09-12.122168.senn441.streeter.miller.t-flac16
Report this as
non-Trade-Friendly
Email us
Torrentgd82-09-12.122168.senn441.streeter.miller.t-flac16.torrent (click to download)
Downloads asgd82-09-12.122168.senn441.streeter.miller.t-flac16
Info hash39d1b2cdf90286360989660cd861181f86899f32
db linkhttp://db.etree.org/shn/122168 | Show | Source
DescriptionThis is a tagged version of shnid: 122168

Grateful Dead
September 12, 1982
Civic Center
Lakeland, FL

Recording Info:
Sennheiser 441 -> Cassette Master (Sony TC-D5M/Maxell MX90)

Transfer Info:
Cassette Master (Sony TC-K677ES) -> Sound Devices 744T (24bit/48k) ->
Adobe Audition v3.0 -> Samplitude Professional v11.2.1 -> FLAC/16
(2 Discs Audio / 1 DVD FLAC)

All Transfers and Mastering By Charlie Miller
charliemiller87@earthlink.net
September 27, 2012

Notes:
-- Disc change is seamless
-- Don't Ease Me In had very low levels and got hissy when raised
-- Thanks to Frank Streeter for lending me his masters
-- Thanks to Joe B. Jones for his help with the pitch correction
____________________________________________________________________________________________

--Set 1--
101-d1t01 - Tuning
102-d1t02 - Alabama Getaway ->
103-d1t03 - Greatest Story Ever Told
104-d1t04 - Friend of the Devil
105-d1t05 - Cassidy
106-d1t06 - West L.A. Fadeaway ->
107-d1t07 - Little Red Rooster
108-d1t08 - Brown Eyed Women
109-d1t09 - It's All Over Now
110-d1t10 - Might as Well

--Set 2--
201-d1t11 - Man Smart (Woman Smarter)
202-d2t01 - Ship of Fools
203-d2t02 - Playing in the Band ->
204-d2t03 - Drums ->
205-d2t04 - Space ->
206-d2t05 - The Wheel
207-d2t06 - Not Fade Away ->
208-d2t07 - Morning Dew ->
209-d2t08 - Sugar Magnolia

--Encore--
210-d2t09 - Don't Ease Me In
____________________________________________________________________________________________

Tagging notes:
Show information is embedded within the header of each flac file.
It will display on any player capable of directly playing flac
files. If converted to wav during processing, all tags will be
stripped, however audio data will remain unaffected. If you must
transcode to a lossy format, do so directly Flac > Lossy.
Use ffp to validate audio integrity.
Md5 values will change if tagging is altered.
B. Proctor 10-03-12
____________________________________________________________________________________________


SHNTOOL OUTPUT:
length expanded size cdr WAVE problems fmt ratio filename
0:54.00 9525644 B --- -- ---xx flac 0.6027 gd82-09-12d1t01.flac
4:54.65 52014524 B --- -- ---xx flac 0.6749 gd82-09-12d1t02.flac
4:25.54 46873052 B --- -- ---xx flac 0.6577 gd82-09-12d1t03.flac
9:48.35 103805564 B --- -- ---xx flac 0.6556 gd82-09-12d1t04.flac
5:43.41 60601676 B --- -- ---xx flac 0.6620 gd82-09-12d1t05.flac
8:33.65 90646124 B --- -- ---xx flac 0.6614 gd82-09-12d1t06.flac
8:19.37 88110668 B --- -- ---xx flac 0.6654 gd82-09-12d1t07.flac
5:50.22 61791788 B --- -- ---xx flac 0.6675 gd82-09-12d1t08.flac
9:02.41 95705276 B --- -- ---xx flac 0.6683 gd82-09-12d1t09.flac
4:27.49 47214092 B --- -- ---xx flac 0.6726 gd82-09-12d1t10.flac
8:13.66 87120476 B --- -- ---xx flac 0.6571 gd82-09-12d1t11.flac
10:04.11 106571516 B --- -- ---xx flac 0.6346 gd82-09-12d2t01.flac
16:17.62 172488668 B --- -- ---xx flac 0.6570 gd82-09-12d2t02.flac
5:26.03 57513500 B --- -- ---xx flac 0.6044 gd82-09-12d2t03.flac
4:20.50 45981644 B --- -- ---xx flac 0.5849 gd82-09-12d2t04.flac
6:17.51 66622796 B --- -- ---xx flac 0.6477 gd82-09-12d2t05.flac
8:30.14 89996972 B --- -- ---xx flac 0.6528 gd82-09-12d2t06.flac
10:51.17 114876428 B --- -- ---xx flac 0.6350 gd82-09-12d2t07.flac
8:24.49 89020892 B --- -- ---xx flac 0.6732 gd82-09-12d2t08.flac
3:11.34 33772412 B --- -- ---xx flac 0.7029 gd82-09-12d2t09.flac
143:38.16 1520253712 B 0.6537 (20 files)
Checksumsgd82-09-12d1t01.flac:0e4ec4cc7b1bca3622648495dc45cf52
gd82-09-12d1t02.flac:80fc66a78cdec8a258cc0806050a22b2
gd82-09-12d1t03.flac:d5122dcc799ea611561b08b698d33710
gd82-09-12d1t04.flac:72fae2bef78657da3de787dca3aa18d8
gd82-09-12d1t05.flac:14225ce5ab1928cfbc927352f9aa1df8
gd82-09-12d1t06.flac:905bf1b7ced3f58ad81946e460502700
gd82-09-12d1t07.flac:f7ef873e0ba216c4c8935965b11b2e5c
gd82-09-12d1t08.flac:03e73088590ba9bf9db93937d0fc6a18
gd82-09-12d1t09.flac:c5968703b2617f04ff89f6d1c590c802
gd82-09-12d1t10.flac:1260515b8797d0ec79dd8d5839385904
gd82-09-12d1t11.flac:c08172d1e5f8bf074567baf6ba84541c
gd82-09-12d2t01.flac:48006bc5e4a9891a49707f231d5dd534
gd82-09-12d2t02.flac:47ea15f31ece7921b197ce1e07fbdf68
gd82-09-12d2t03.flac:27a0de4cf3c624933c1972ea7ecd62fa
gd82-09-12d2t04.flac:46259e874758c003aa4c8364f4d2f82c
gd82-09-12d2t05.flac:00261d0825c3258bf1febaf3756cbb16
gd82-09-12d2t06.flac:a50490c1c516ef52c996b2214b3b2c9b
gd82-09-12d2t07.flac:cf59f0f73bf8dff57a8f9f85c0987bee
gd82-09-12d2t08.flac:b6d22acf8b273673f5b5b8aef688f88f
gd82-09-12d2t09.flac:ef8ba83ca5324ff36517c27da0f5cb49
TypeGrateful Dead
Last seederLast activity 23:44 ago
Size947.74 MB (993775238 Bytes)
Added2013-01-20 13:42:18
Views1
Hits197
Snatched75 times
Upped bySpiralLightofVenus
Num files
[See full list]
23 files
Peers
[See full list]
1 seeder, 0 leechers = 1 peer total

No comments yet

Add a comment


http://etree.org : http://db.etree.org : http://forums.etree.org : http://wiki.etree.org : Legal : RSS Feed

Contents designed & maintained by the etree.org volunteers
1998-2014, etree.org, except where noted. All Rights Reserved.
Read our terms of service and privacy guidelines