bt.etree.org
etree.org Community Bittorrent Tracker
ArtistPhish
Showphish1998-12-30u89i
Report this as
non-Trade-Friendly
Email us
Torrentphish1998-12-30u89i.torrent (click to download)
Downloads asphish1998-12-30u89i
Info hash179b193e34690e28c28f6affd13107c83f5633d3
db linkhttp://db.etree.org/shn/123534 | Show | Source
DescriptionPhish - December 30, 1998
Madison Square Garden - New York, NY

Recording Info:
Neumann U89i (Hypercardioid) -> Apogee AD1000 -> Dat (Tascam DA-P1/48k)

Transfer Info:
Dat (Tascam DA-20) -> Tascam SS-R05 -> Samplitude Professional v11.2.1 -> FLAC
(3 Discs Audio / 1 DVD FLAC)

All Transfers and Mastering By Charlie Miller
charliemiller87@earthlink.net
January 20, 2013

Notes:
-- All disc changes are seamless
-- Grind with Tom Marshall on vocals
-- Possum with Wipe Out teases

Set 1:
d1t01 - Chalk Dust Torture
d1t02 - Big Black Furry Creature From Mars
d1t03 - Wilson ->
d1t04 - Roggae
d1t05 - Sparkle ->
d1t06 - The Moma Dance
d1t07 - The Old Home Place
d1t08 - Sample In A Jar
d1t09 - Frankie Says ->
d1t10 - Maze
d1t11 - Loving Cup
d2t01 - Reba

Set 2:
d2t02 - Down With Disease ->
d2t03 - Piper
d2t04 - Prince Caspian
d3t01 - The Squirming Coil ->
d3t02 - Slave To The Traffic Light

Encore:
d3t03 - 'Trey Rap'
d3t04 - Grind
d3t05 - Possum


SHNTOOL OUTPUT:
length expanded size cdr WAVE problems fmt ratio filename
6:27.44 68370332 B --- -- ---xx flac 0.5903 phish1998-12-30d1t01.flac
4:43.34 50001212 B --- -- ---xx flac 0.5790 phish1998-12-30d1t02.flac
5:38.23 59677340 B --- -- ---xx flac 0.5744 phish1998-12-30d1t03.flac
7:02.58 74577260 B --- -- ---xx flac 0.5472 phish1998-12-30d1t04.flac
4:06.01 43396796 B --- -- ---xx flac 0.5737 phish1998-12-30d1t05.flac
8:55.67 94531628 B --- -- ---xx flac 0.5572 phish1998-12-30d1t06.flac
4:10.71 44267036 B --- -- ---xx flac 0.5576 phish1998-12-30d1t07.flac
5:10.32 54759308 B --- -- ---xx flac 0.5841 phish1998-12-30d1t08.flac
9:04.06 95975756 B --- -- ---xx flac 0.5198 phish1998-12-30d1t09.flac
11:52.68 125756780 B --- -- ---xx flac 0.5735 phish1998-12-30d1t10.flac
6:44.01 71267996 B --- -- ---xx flac 0.5877 phish1998-12-30d1t11.flac
15:31.07 164244908 B --- -- ---xx flac 0.5435 phish1998-12-30d2t01.flac
21:49.21 230957036 B --- -- ---xx flac 0.5598 phish1998-12-30d2t02.flac
8:28.45 89717084 B --- -- ---xx flac 0.5818 phish1998-12-30d2t03.flac
14:01.19 148397132 B --- -- ---xx flac 0.5178 phish1998-12-30d2t04.flac
12:50.39 135919772 B --- -- ---xx flac 0.5135 phish1998-12-30d3t01.flac
14:46.74 156464492 B --- -- ---xx flac 0.5161 phish1998-12-30d3t02.flac
1:02.72 11106188 B --- -- ---xx flac 0.4810 phish1998-12-30d3t03.flac
1:18.38 13848620 B --- -- ---xx flac 0.4912 phish1998-12-30d3t04.flac
11:54.69 126111932 B --- -- ---xx flac 0.5463 phish1998-12-30d3t05.flac
175:40.39 1859348608 B 0.5495 (20 files)
Checksumsphish1998-12-30d1t01.flac:f99a17f3062f8e259bbc421d6db51e5e<br />
phish1998-12-30d1t02.flac:5a9e7cba41b5e0daea984c3f6ec9a6a6<br />
phish1998-12-30d1t03.flac:054b69723e6b2003bf05a149b30b16f6<br />
phish1998-12-30d1t04.flac:b8f873b840b9192ecb63792eb3aeb33c<br />
phish1998-12-30d1t05.flac:ad1b2ca371bdca78b98c2147a1e1961d<br />
phish1998-12-30d1t06.flac:dfe1618749c1d4fd3a22b0364d5a7ac3<br />
phish1998-12-30d1t07.flac:3620a1475ee61adefbd55ddd7aa765f4<br />
phish1998-12-30d1t08.flac:f04ea7f92c4c814be5eaf7b7926d2f9a<br />
phish1998-12-30d1t09.flac:a1c4711b372193a686a32c7ef87ab298<br />
phish1998-12-30d1t10.flac:32c7299c91f0d647814e3ade3c837839<br />
phish1998-12-30d1t11.flac:aada1bb9180cf62477dfe8ae45a919ef<br />
phish1998-12-30d2t01.flac:494e970cead2057f61455165b2760a82<br />
phish1998-12-30d2t02.flac:da358907caf2978210a66e49be2579cf<br />
phish1998-12-30d2t03.flac:767d145426ca11818bf24bd6aa87fe18<br />
phish1998-12-30d2t04.flac:038573e583b6eab0f1bb68b9843d8f98<br />
phish1998-12-30d3t01.flac:69118a4edfca91db5445e5f61b5c0fdc<br />
phish1998-12-30d3t02.flac:35070b852abe9dfc18a35768dec61926<br />
phish1998-12-30d3t03.flac:305b2d2fd3b4f1aa91b8fb4fed39a5d0<br />
phish1998-12-30d3t04.flac:c19c03e42b59277b8413764065552276<br />
phish1998-12-30d3t05.flac:bbdba9b124359fc6a8bf3b6ebebc6ad9
TypePhish
Last seederLast activity 10:05 ago
Size974.38 MB (1021710893 Bytes)
Added2013-01-20 18:06:40
Views5
Hits691
Snatched436 times
Upped bycharlie miller
Num files
[See full list]
23 files
Peers
[See full list]
2 seeders, 0 leechers = 2 peers total

Add a comment

jasonsobel 2013-01-20 19:09:59
I just added this to the etree database:
http://db.etree.org/shn/123534

thanks!

also, BTW, this was taped by Dan Estrin.
kuvap 2013-01-20 19:15:36
Wow! Was at this one too. Thanks Charlie!
011968 2013-01-20 19:34:40
recorded by : D.E/G.F/E.P/MK

kuroda /languedoc " yo those beers are cold braaaaah"
thanks for the couch spot at the board <3
and to rob clay for the leaky cooler :>
Hbomber!!! 2013-01-20 22:42:53
Happy Birthday Mr. BIG!!!!!!!!!!!!!!!!
twatts 2013-01-21 00:43:23
Thanks for this!!!

Terry
metawhy 2013-01-21 11:50:30
awesome! do you have any more phish on deck?!?!
011968 2013-01-21 19:50:09
tnx HBomber and pham mad <3 for you and the mrs and kids
geewiz010 2013-01-21 19:52:03
Thanks for this!
charlie miller 2013-01-21 23:12:41
I have a lot more Phish on deck.
gainesvillegreen 2013-01-22 20:11:28
^awesome
taperbob 2013-02-01 06:45:42
"also, BTW, this was taped by Dan Estrin."

...but you'd never know that because charlie never, ever credits anyone else for his 'recordings'
kindmeow 2013-09-03 14:58:52
many thanks for the kind music


(~);}

Add a comment


http://etree.org : http://db.etree.org : http://forums.etree.org : http://wiki.etree.org : Legal : RSS Feed

Contents designed & maintained by the etree.org volunteers
1998-2014, etree.org, except where noted. All Rights Reserved.
Read our terms of service and privacy guidelines