bt.etree.org
etree.org Community Bittorrent Tracker
ArtistGrateful Dead
Showgd82-09-14.121944.akg414.streeter.miller.t-flac16
Report this as
non-Trade-Friendly
Email us
Torrentgd82-09-14.121944.akg414.streeter.miller.t-flac16.torrent (click to download)
Downloads asgd82-09-14.121944.akg414.streeter.miller.t-flac16
Info hashc46dfa668b61c86852cc89d6402a40201e388977
db linkhttp://db.etree.org/shn/121944 | Show | Source
DescriptionThis is a tagged version of shind: 121944

Grateful Dead
September 14, 1982
University Hall
Charlottesville, VA

Recording Info:
AKG 414 -> Cassette Master (Sony TC-D5M/Maxell XLII-S/TDK MA-R)

Transfer Info:
Cassette Master (Nakamichi DR-1) -> Sound Devices 744T (24bit/96k) ->
Samplitude Professional v11.2.1 -> FLAC/16
(2 Discs Audio / 1 DVD FLAC)

All Transfers and Mastering By Charlie Miller
charliemiller87@earthlink.net
September 7, 2012

Patch Info:
Sennheiser 441 -> Cassette Master -> Cassette supplies:
He's Gone (6:05 - end of track)
Drums (complete track)

Notes:
-- Disc change is seamless
-- Thanks to Frank Streeter for lending me his masters
-- Patched out of Dan Healy's mics set up mid/side at the soundboard
-- Thanks to Joe B. Jones for his help with pitch correcting the patch source
___________________________________________________________________________________________

--Set 1--
101-d1t01 - Jack Straw
102-d1t02 - Peggy-O ->
103-d1t03 - C C Rider
104-d1t04 - Big Railroad Blues
105-d1t05 - El Paso
106-d1t06 - Bird Song
107-d1t07 - Lazy Lightnin' ->
108-d1t08 - Supplication
109-d1t09 - Deal

--Set 2--
201-d1t10 - China Cat Sunflower ->
202-d1t11 - I Know You Rider
203-d1t12 - Samson & Delilah
204-d2t01 - High Time
205-d2t02 - Estimated Prophet ->
206-d2t03 - He's Gone ->
207-d2t04 - Drums ->
208-d2t05 - Space ->
209-d2t06 - Iko Iko ->
210-d2t07 - Truckin' ->
211-d2t08 - Black Peter ->
212-d2t09 - I Need a Miracle ->
213-d2t10 - Bertha

--Encore--
214-d2t11 - Johnny B. Goode
___________________________________________________________________________________________

Tagging notes:
Show information is embedded within the header of each flac file.
It will display on any player capable of directly playing flac
files. If converted to wav during processing, all tags will be
stripped, however audio data will remain unaffected. If you must
transcode to a lossy format, do so directly Flac > Lossy.
Use ffp to validate audio integrity.
Md5 values will change if tagging is altered.
B. Proctor 10-06-12
___________________________________________________________________________________________


SHNTOOL OUTPUT:
length expanded size cdr WAVE problems fmt ratio filename
5:40.32 60051308 B --- -- ---xx flac 0.6909 gd82-09-14d1t01.flac
6:23.02 67565948 B --- -- ---xx flac 0.6723 gd82-09-14d1t02.flac
7:15.18 76776380 B --- -- ---xx flac 0.6870 gd82-09-14d1t03.flac
4:43.59 50060012 B --- -- ---xx flac 0.7084 gd82-09-14d1t04.flac
6:21.71 67375436 B --- -- ---xx flac 0.6677 gd82-09-14d1t05.flac
9:50.09 104097212 B --- -- ---xx flac 0.6884 gd82-09-14d1t06.flac
3:19.20 35150684 B --- -- ---xx flac 0.7070 gd82-09-14d1t07.flac
9:06.15 96349724 B --- -- ---xx flac 0.7008 gd82-09-14d1t08.flac
6:16.61 66469916 B --- -- ---xx flac 0.6974 gd82-09-14d1t09.flac
6:41.65 70889324 B --- -- ---xx flac 0.6994 gd82-09-14d1t10.flac
5:43.30 60575804 B --- -- ---xx flac 0.7011 gd82-09-14d1t11.flac
8:25.01 89084396 B --- -- ---xx flac 0.6919 gd82-09-14d1t12.flac
7:51.59 83223212 B --- -- ---xx flac 0.6708 gd82-09-14d2t01.flac
12:07.63 128391020 B --- -- ---xx flac 0.6876 gd82-09-14d2t02.flac
11:30.07 121732508 B --- -- ---xx flac 0.6856 gd82-09-14d2t03.flac
0:54.49 9640892 B --- -- ---xx flac 0.6955 gd82-09-14d2t04.flac
2:24.71 25568636 B --- -- ---xx flac 0.5772 gd82-09-14d2t05.flac
8:06.43 85831580 B --- -- ---xx flac 0.6847 gd82-09-14d2t06.flac
6:28.40 68537324 B --- -- ---xx flac 0.6907 gd82-09-14d2t07.flac
8:29.36 89872316 B --- -- ---xx flac 0.6635 gd82-09-14d2t08.flac
3:06.46 32918636 B --- -- ---xx flac 0.7008 gd82-09-14d2t09.flac
6:30.16 68833676 B --- -- ---xx flac 0.6895 gd82-09-14d2t10.flac
4:12.30 44523404 B --- -- ---xx flac 0.7004 gd82-09-14d2t11.flac
151:30.18 1603519348 B 0.6864 (23 files)

Checksumsgd82-09-14d1t01.flac:8e61a402fe1ae2517ed5fbbb43ff5895
gd82-09-14d1t02.flac:00787085c6602410894158d6c677f576
gd82-09-14d1t03.flac:7f881d34bf4f8c9f8bc5992bb7151cc2
gd82-09-14d1t04.flac:d4306b923b75073d6bf104cc7e7c24ba
gd82-09-14d1t05.flac:b38bc7399d5a30017287284e005a7bcc
gd82-09-14d1t06.flac:29006cdf4ce5630db386e1329e8ea75a
gd82-09-14d1t07.flac:a0c9e2c0247c40becd0ecd55df33b4d0
gd82-09-14d1t08.flac:f5b1d368ca2e43521bdd7f8741a35385
gd82-09-14d1t09.flac:425fc13559551c11c0e0bae707886af1
gd82-09-14d1t10.flac:c8cd6dd08c36134718f90d32149a0968
gd82-09-14d1t11.flac:9cfbac8d48efb5a182317fbb7224cbde
gd82-09-14d1t12.flac:10ff1259b453970c64793233fc7818e9
gd82-09-14d2t01.flac:6829d9069a0916796d82d32d8dc4c591
gd82-09-14d2t02.flac:40cffc1a321a50d6e85b339b99aaf863
gd82-09-14d2t03.flac:4a1e81c3fc1188a83a9ec16edd05077a
gd82-09-14d2t04.flac:44cd9f5c1904155a28b0c4b262a30355
gd82-09-14d2t05.flac:2ade4fd37cdd6dc655cb9f3d837578a3
gd82-09-14d2t06.flac:26a25a5c173a74a36473dea901b5a7cb
gd82-09-14d2t07.flac:72bcf161c12ccb02c4a8d1eefb2ccf19
gd82-09-14d2t08.flac:ab0c12095a0d106417198356ece4a50e
gd82-09-14d2t09.flac:79e6474abfd790e7d5aec692b34b40ac
gd82-09-14d2t10.flac:be592d887a9c17de365a8cc9b64278bd
gd82-09-14d2t11.flac:f4e7c499726bd4e5b424ef1b1a48b7a8
TypeGrateful Dead
Last seederLast activity 4:30 ago
Size1.025 GB (1100671867 Bytes)
Added2013-01-21 13:56:02
Views6
Hits261
Snatched142 times
Upped bySpiralLightofVenus
Num files
[See full list]
28 files
Peers
[See full list]
1 seeder, 0 leechers = 1 peer total

Add a comment

SpiralLightofVenus 2013-01-21 14:08:10
My apologies to anyone that I have frustrated with today's seeds. I have had a whole host of very odd abnormalities with my client and I have been working diligently to straighten everything out on my PC and here for you. I think things are finally working but if anyone experiences anything out of the ordinary please let me know. My best to you and, again, my apologies.
ECB 2013-01-22 20:07:41
SLoV-

Thanks for the up and thanks to Charlie for the mastering. I've never heard this one but look forward to cranking it tomorrow and I'll let you know if I hear anything funky.

I generally really like 414s (a friend had a pair and ran them for years on many shows I love to this day). I've only heard a handful that were recorded in the mid-side pattern so it should be an interesting listen.

Eric

Add a comment


http://etree.org : http://db.etree.org : http://forums.etree.org : http://wiki.etree.org : Legal : RSS Feed

Contents designed & maintained by the etree.org volunteers
1998-2014, etree.org, except where noted. All Rights Reserved.
Read our terms of service and privacy guidelines