bt.etree.org
etree.org Community Bittorrent Tracker
ArtistGrateful Dead
Showgd1991-09-09.nak300.gidley.123544.flac2448
Report this as
non-Trade-Friendly
Email us
Torrentgd1991-09-09.nak300.gidley.123544.flac2448.torrent (click to download)
Downloads asgd1991-09-09.nak300.gidley.123544.flac2448
Info hash30a8a844a96725d6df98945cbec33c9d3ac87f41
db linkhttp://db.etree.org/shn/123544 | Show | Source
DescriptionGRATEFUL DEAD
Madison Square Garden
New York NY
09-09-1991

24bit/48kHz file-set

s1t01 Picasso Moon
s1t02 Sugaree
s1t03 Me & My Uncle >
s1t04 Mexicali Blues
s1t05 They Love Eachother
s1t06 Stuck Inside of Mobile with the Memphis Blues Again
s1t07 Loose Lucy
s1t08 Music Never Stopped

s2t01 Iko Iko
s2t02 Looks Like Rain
s2t03 New Speedway Boogie >
s2t04 Playin' in the Band Reprise >
s2t05 Uncle John's Band >
s2t06 Drums >
s2t07 Space >
s2t08 The Last Time >
s2t09 Morning Dew
s2t10 Encore: The Mighty Quinn

OTS AUD: 2x Nakamichi CM300 w/CP4 shotguns > Sony TC-D5M >
Maxell MXS 90/100, w/no Dolby. Taped by Ted Gidley.

Transfer: MAC > Nakamichi CR-5A > Edirol FA-66 > Wavelab >
TLH > FLAC 2448 tagged. Transfer by Andrew F. 01/2013

Note: ID-28851 patch Drums 9:02 > 9:28.

length expanded size cdr WAVE problems fmt ratio filename
6:51.480 118506284 B cxx -- ---xx flac 0.7932 gd1991-09-09s1t01.flac
11:53.227 205409324 B cxx -- ---xx flac 0.7763 gd1991-09-09s1t02.flac
3:15.400 56275244 B cxx -- ---xx flac 0.7803 gd1991-09-09s1t03.flac
5:18.000 91584044 B cxx -- ---xx flac 0.7874 gd1991-09-09s1t04.flac
8:35.840 148561964 B cxx -- ---xx flac 0.7735 gd1991-09-09s1t05.flac
10:17.120 177730604 B cxx -- ---xx flac 0.7824 gd1991-09-09s1t06.flac
6:42.067 115795244 B cxx -- ---xx flac 0.7871 gd1991-09-09s1t07.flac
7:33.562 130625942 B cxx -- ---xx flac 0.7813 gd1991-09-09s1t08.flac
8:46.240 151557164 B cxx -- ---xx flac 0.7868 gd1991-09-09s2t01.flac
8:38.080 149207084 B cxx -- ---xx flac 0.7738 gd1991-09-09s2t02.flac
7:08.120 123298604 B cxx -- ---xx flac 0.7886 gd1991-09-09s2t03.flac
10:18.813 178218284 B cxx -- ---xx flac 0.7830 gd1991-09-09s2t04.flac
8:45.973 151480364 B cxx -- ---xx flac 0.7928 gd1991-09-09s2t05.flac
10:03.200 173721644 B cxx -- ---xx flac 0.7473 gd1991-09-09s2t06.flac
13:16.133 229286444 B cxx -- ---xx flac 0.7456 gd1991-09-09s2t07.flac
6:21.373 109835564 B cxx -- ---xx flac 0.7988 gd1991-09-09s2t08.flac
11:43.507 202609964 B cxx -- ---xx flac 0.7756 gd1991-09-09s2t09.flac
5:34.646 96378002 B cxx -- ---xx flac 0.7857 gd1991-09-09s2t10.flac
151:02.781 2610081768 B 0.7776 (18 files)

No errors occured.
Checksumsc5ac97ee7c7135434f25d683f2b0c3fc *gd1991-09-09s1t01.flac
fda224e92b3c31747fe9caf3c62262f8 *gd1991-09-09s1t02.flac
7a4e830fc11f7d67154e8e9fd45e9be7 *gd1991-09-09s1t03.flac
11039a99fde7d69ad5b70af5bc482498 *gd1991-09-09s1t04.flac
187c30e31e0ad4034315f2c6633e7799 *gd1991-09-09s1t05.flac
fc05b2c1fb724dd7e8292a87150cca40 *gd1991-09-09s1t06.flac
2e2e5c0f3b8115aa5437404e8d61a698 *gd1991-09-09s1t07.flac
1738f991d31fd32e51e2fb4a3f5ddff4 *gd1991-09-09s1t08.flac
721dd31c28264d1a0097fff88cadcd3e *gd1991-09-09s2t01.flac
2f807c5ccaa90c5d99cbb177131a3f86 *gd1991-09-09s2t02.flac
7640a8c1c83297a80a0b1f219c2de7a9 *gd1991-09-09s2t03.flac
ae7572cec90a25284d733a40182172b4 *gd1991-09-09s2t04.flac
720ff39c83aa6e4092d9a73e58c98a43 *gd1991-09-09s2t05.flac
afbce011e2f3cffa8df8158b3ac6305b *gd1991-09-09s2t06.flac
ab93829cd91e77f78981493b450cceb9 *gd1991-09-09s2t07.flac
d51132bf7c83af2466310eee98d97c90 *gd1991-09-09s2t08.flac
b510991fe756dd13915eb597994f53fd *gd1991-09-09s2t09.flac
e20376ee398c4ff06c22acf2705c30aa *gd1991-09-09s2t10.flac

gd1991-09-09s1t01.flac:90a536d849616e60afda59b849315e6e
gd1991-09-09s1t02.flac:68c738516969902ab86561318d6e7369
gd1991-09-09s1t03.flac:a70200869e32e9b6470fd44f433d94ed
gd1991-09-09s1t04.flac:21dd52f9b3c4a4290121c69411db9e6c
gd1991-09-09s1t05.flac:d78823fba9c670fbd7289f8b902dc014
gd1991-09-09s1t06.flac:5c6801951dbf2c428a0d0f10e84094e5
gd1991-09-09s1t07.flac:a47db4d9ba98dc58c49295ee43809461
gd1991-09-09s1t08.flac:5321870d278495844a7247bbbd3b076b
gd1991-09-09s2t01.flac:be4fe73742d739c7314bac992183840e
gd1991-09-09s2t02.flac:c219a4387b8239ea52d43be479022125
gd1991-09-09s2t03.flac:e2c3313093e99871b8842a0957131424
gd1991-09-09s2t04.flac:f44b4f3919da630c8187e934bad1a663
gd1991-09-09s2t05.flac:0266ddf0e232815519f2b45a22eb54a6
gd1991-09-09s2t06.flac:e75b1c37d9abec81a9a58e6a66fe8e02
gd1991-09-09s2t07.flac:c73b99f65e6e9d507dfe04187f65b951
gd1991-09-09s2t08.flac:ed88bbf3e79d313d2592d1d70bf7882f
gd1991-09-09s2t09.flac:f0006babad32a8fa99d9cc2336ddf3b7
gd1991-09-09s2t10.flac:fb0c3b87d5a236c42b8a8c1f9893689c
TypeGrateful Dead
Last seederLast activity 9:28 ago
Size1.890 GB (2029684705 Bytes)
Added2013-01-21 14:22:02
Views1
Hits207
Snatched89 times
Upped bynfagdtrfb
Num files
[See full list]
23 files
Peers
[See full list]
0 seeders, 1 leecher = 1 peer total

No comments yet

Add a comment


http://etree.org : http://db.etree.org : http://forums.etree.org : http://wiki.etree.org : Legal : RSS Feed

Contents designed & maintained by the etree.org volunteers
1998-2014, etree.org, except where noted. All Rights Reserved.
Read our terms of service and privacy guidelines