bt.etree.org
etree.org Community Bittorrent Tracker
ArtistOther
ShowCracker Middle East Downstairs Cambridge, Massachusetts 1/20/2013 (Schoeps CCM4V'S FOB)
Report this as
non-Trade-Friendly
Email us
Torrentcracker2013-01-20.flac16.torrent (click to download)
Downloads ascracker2013-01-20.flac16
Info hashca1c917558ae3d82d2832a8a3b9fb503bc05085e
DescriptionCracker
Middle East Downstairs
Cambridge, Massachusetts
1/20/2013

Source: Schoeps CCM4V'S(din)>Lunatec V2>Benchmark AD2K>
Sound Devices 722 (24/48)
FOB/DFC/KFC/ZFC/AARP Clamped To Ceiling 26' From Stage, 8 1/2' High
DSP: Sound Devices 722>Sound Forge 9.0>CD Wave>flac(16)
Recorded By: Z-Man
Seeded By: Z-Man

Disc I

01 Banter
02 Low
03 The Good Life
04 What The World Needs Now
05 My Life Is Totally Boring
06 One More Chance
07 Hey Bret
08 Friends
09 Euro Trash Girl
10 Turn On, Tune In, Drop Out

Disc II

01 Guarded By Monkeys
02 Useless Stuff
03 The Riverside
04 Get Off This
05 Another Song About The Rain
Encore:
06 *Tuning
07 *Come Down The Coast
08 #One Fine Day
09 Band Introductions

* Camper Van Beethoven
# With Jonathan Segel Of Camper Van Beethoven On Mandolin

Flac Fingerprint

cracker2013-01-20d01t01.flac:50036078135cfc801129c2c7763c1d49
cracker2013-01-20d01t02.flac:3c301760728e8ea39497b99d224ec9e2
cracker2013-01-20d01t03.flac:a9fc0250ff375cb82d9866d70620f680
cracker2013-01-20d01t04.flac:2fd05e5f229833752fc544c811ac676c
cracker2013-01-20d01t05.flac:632e189c9f911ed8a14eb6daa3bae264
cracker2013-01-20d01t06.flac:167020ffa62a8ef202e90ebf810aae31
cracker2013-01-20d01t07.flac:c4ba3f30d83effb70971c834df588374
cracker2013-01-20d01t08.flac:126c1f28c2b467c2ce8452765d38e193
cracker2013-01-20d01t09.flac:4000a5cfea81336420971879cdff386e
cracker2013-01-20d01t10.flac:0d15493b27220e161a7cf5c41daceb61
cracker2013-01-20d02t01.flac:fe41b48ac505f3e38740d39519dadef1
cracker2013-01-20d02t02.flac:a16af59b1a956549482da005e26eb7f7
cracker2013-01-20d02t03.flac:750d2741c6d0fd08cb848fd986fc6f03
cracker2013-01-20d02t04.flac:4243691ecedc4384d961bf7fcc36227d
cracker2013-01-20d02t05.flac:8bf93009a1f72edc52327dbdc89520af
cracker2013-01-20d02t06.flac:b7853dcbc0f768877c9c9a14d72735d5
cracker2013-01-20d02t07.flac:609017139ba1c256be7c6cd318feb899
cracker2013-01-20d02t08.flac:e83a9a9a9e1d511883dcefcecbf48a65
cracker2013-01-20d02t09.flac:abcc89db6c9d55cfd263781e763349a4

Shntool

length expanded size cdr WAVE problems fmt ratio filename
0:45.56 8069756 B --- -- ----- wav 1.0000 cracker2013-01-20 I01.wav
0:22.30 3951404 B --- -- ----- wav 1.0000 cracker2013-01-20 I02.wav
0:45.56 8069756 B --- -- ---xx flac 0.3561 cracker2013-01-20d01t01.flac
4:32.65 48133724 B --- -- ---xx flac 0.5672 cracker2013-01-20d01t02.flac
3:48.30 40289804 B --- -- ---xx flac 0.5752 cracker2013-01-20d01t03.flac
4:36.67 48844028 B --- -- ---xx flac 0.5600 cracker2013-01-20d01t04.flac
3:23.00 35809244 B --- -- ---xx flac 0.4757 cracker2013-01-20d01t05.flac
4:15.53 45106700 B --- -- ---xx flac 0.5238 cracker2013-01-20d01t06.flac
5:01.31 53169356 B --- -- ---xx flac 0.5544 cracker2013-01-20d01t07.flac
4:25.10 46769564 B --- -- ---xx flac 0.4612 cracker2013-01-20d01t08.flac
8:29.20 89834684 B --- -- ---xx flac 0.5014 cracker2013-01-20d01t09.flac
4:11.12 44304668 B --- -- ---xx flac 0.5318 cracker2013-01-20d01t10.flac
4:53.27 51748748 B --- -- ---xx flac 0.5123 cracker2013-01-20d02t01.flac
2:23.12 25253468 B --- -- ---xx flac 0.5806 cracker2013-01-20d02t02.flac
4:31.24 47860892 B --- -- ---xx flac 0.5492 cracker2013-01-20d02t03.flac
3:43.12 39365468 B --- -- ---xx flac 0.5412 cracker2013-01-20d02t04.flac
8:46.74 92960492 B --- -- ---xx flac 0.4947 cracker2013-01-20d02t05.flac
0:54.01 9527996 B --- -- ---xx flac 0.3994 cracker2013-01-20d02t06.flac
4:57.47 52501388 B --- -- ---xx flac 0.4519 cracker2013-01-20d02t07.flac
7:50.51 83027996 B --- -- ---xx flac 0.5215 cracker2013-01-20d02t08.flac
0:46.38 8203820 B --- -- ---xx flac 0.3781 cracker2013-01-20d02t09.flac
83:24.41 882802956 B 0.5230 (21 files)














Checksumscracker2013-01-20d01t01.flac:50036078135cfc801129c2c7763c1d49<br />
cracker2013-01-20d01t02.flac:3c301760728e8ea39497b99d224ec9e2<br />
cracker2013-01-20d01t03.flac:a9fc0250ff375cb82d9866d70620f680<br />
cracker2013-01-20d01t04.flac:2fd05e5f229833752fc544c811ac676c<br />
cracker2013-01-20d01t05.flac:632e189c9f911ed8a14eb6daa3bae264<br />
cracker2013-01-20d01t06.flac:167020ffa62a8ef202e90ebf810aae31<br />
cracker2013-01-20d01t07.flac:c4ba3f30d83effb70971c834df588374<br />
cracker2013-01-20d01t08.flac:126c1f28c2b467c2ce8452765d38e193<br />
cracker2013-01-20d01t09.flac:4000a5cfea81336420971879cdff386e<br />
cracker2013-01-20d01t10.flac:0d15493b27220e161a7cf5c41daceb61<br />
cracker2013-01-20d02t01.flac:fe41b48ac505f3e38740d39519dadef1<br />
cracker2013-01-20d02t02.flac:a16af59b1a956549482da005e26eb7f7<br />
cracker2013-01-20d02t03.flac:750d2741c6d0fd08cb848fd986fc6f03<br />
cracker2013-01-20d02t04.flac:4243691ecedc4384d961bf7fcc36227d<br />
cracker2013-01-20d02t05.flac:8bf93009a1f72edc52327dbdc89520af<br />
cracker2013-01-20d02t06.flac:b7853dcbc0f768877c9c9a14d72735d5<br />
cracker2013-01-20d02t07.flac:609017139ba1c256be7c6cd318feb899<br />
cracker2013-01-20d02t08.flac:e83a9a9a9e1d511883dcefcecbf48a65<br />
cracker2013-01-20d02t09.flac:abcc89db6c9d55cfd263781e763349a4 Of Cracke
TypeOther
Last seederLast activity 20:15 ago
Size428.88 MB (449716797 Bytes)
Added2013-01-21 18:54:48
Views0
Hits191
Snatched79 times
Upped byzmanatl
Num files20 files
File List
[Hide list]
filenamesizemd5
cracker2013-01-20d02t05.flac43.86 MBN/A
cracker2013-01-20d01t09.flac42.96 MBN/A
cracker2013-01-20d02t08.flac41.30 MBN/A
cracker2013-01-20d01t07.flac28.11 MBN/A
cracker2013-01-20d01t04.flac26.09 MBN/A
cracker2013-01-20d01t02.flac26.04 MBN/A
cracker2013-01-20d02t01.flac25.28 MBN/A
cracker2013-01-20d02t03.flac25.07 MBN/A
cracker2013-01-20d02t07.flac22.63 MBN/A
cracker2013-01-20d01t06.flac22.53 MBN/A
cracker2013-01-20d01t10.flac22.47 MBN/A
cracker2013-01-20d01t03.flac22.10 MBN/A
cracker2013-01-20d01t08.flac20.57 MBN/A
cracker2013-01-20d02t04.flac20.32 MBN/A
cracker2013-01-20d01t05.flac16.25 MBN/A
cracker2013-01-20d02t02.flac13.98 MBN/A
cracker2013-01-20d02t06.flac3.63 MBN/A
cracker2013-01-20d02t09.flac2.96 MBN/A
cracker2013-01-20d01t01.flac2.74 MBN/A
cracker2013--01-20.textfile.txt4.1 kBN/A
Peers
[See full list]
1 seeder, 0 leechers = 1 peer total

Add a comment

kooterb 2013-01-21 19:47:11
Nice, Nice Very Nice!!
Thanks for sharing Mr. Z
johnpg 2013-01-21 20:22:38
thanks for the show!
dbgordon 2013-01-21 20:37:49
Hey Z-man

Looks like a grate show. I thought you might want to know if the first tube is their big from the early 90's, it's called "Low"

I love that tune! I have seen hem a few times, and they never disappoint.
They usually play it closer to the end. Kinda cool they played it right at the start.

Thanks for doing your thing. We appreciate it!

Cheers, Dave
axomxa 2013-01-21 21:24:19
Hey Z. Nice. I have their Bank of Am Pavilion 8-11-12 set up. Fun band.
zmanatl 2013-01-21 21:40:20
Yeah DB, it threw me for a loop seeing them open with it!
brofan 2013-01-22 00:24:22
Thank you, Z-Man. You have excellent taste (obviously....)

Add a comment


http://etree.org : http://db.etree.org : http://forums.etree.org : http://wiki.etree.org : Legal : RSS Feed

Contents designed & maintained by the etree.org volunteers
1998-2014, etree.org, except where noted. All Rights Reserved.
Read our terms of service and privacy guidelines